World War Z 2013 NEWCAM 720p AC3 MURDER

escrito por Javi Sanchez el 5 julio 2013

Sin comentarios

World War Z 2013 NEWCAM 720p AC3 MURDER

Código:

World War Z 2013 NEWCAM 720p AC3 MURDER

Complete name : World War Z 2013 NEWCAM 720p AC3 MURDER.mkv
Format : Matroska
Format version : Version 2
File size : 864 MiB
Duration : 1h 48mn
Overall bit rate : 1 111 Kbps

Video
ID : 1
Format : AVC
Format/Info : Advanced Video Codec
Format profile : High@L3.1
Format settings, CABAC : Yes
Format settings, ReFrames : 2 frames
Codec ID : V_MPEG4/ISO/AVC
Duration : 1h 48mn
Bit rate : 980 Kbps
Width : 1 280 pixels
Height : 528 pixels
Display aspect ratio : 2.40:1
Frame rate mode : Constant
Frame rate : 24.000 fps
Color space : YUV
Chroma subsampling : 4:2:0
Bit depth : 8 bits
Scan type : Progressive
Bits/(Pixel*Frame) : 0.060
Stream size : 747 MiB (86%)
Writing library : x264 core
Default : Yes
Forced : No

Audio
ID : 2
Format : AC-3
Format/Info : Audio Coding 3
Mode extension : CM (complete main)
Format settings, Endianness : Big
Codec ID : A_AC3
Duration : 1h 48mn
Bit rate mode : Constant
Bit rate : 128 Kbps
Channel(s) : 2 channels
Channel positions : Front: L R
Sampling rate : 44.1 KHz
Bit depth : 16 bits
Compression mode : Lossy
Stream size : 99.5 MiB (12%)
Default : Yes
Forced : No
Screens:



Download:
Código:

http://uploaded.net/file/ndauiflm/World%20War%20Z%202013%20NEWCAM%20720p%20AC3%20MURDER.mkv
or
http://uploaded.net/file/tn5r09im/World%20War%20Z%202013%20NEWCAM%20720p%20AC3%20MURDER.rar

Valoración: 0 / 5.00 (0 votos)

Todavía no hay comentarios, se el primero!

Escribir un comentario