White House Down 2013 TS XViD – JUSTiCE

escrito por Javi Sanchez el 12 julio 2013

Sin comentarios

White House Down 2013 TS XViD – JUSTiCE

Código:

SOURCE : 720P tempsors THC

Video and audio both cleaned and given justice.
Check sample and see…..

Nice work fellas on ya release …
Took the video and dropped in vdub,used several filters and cleaned it up
the way we like it and hey presto.
Audio stripped and dropped into adobe …..changed the EQ bands and db’s and then
resaved,and remuxed to our rip.

Video
ID : 0
Format : MPEG-4 Visual
Format profile : Advanced Simple@L5
Format settings, BVOP : 2
Format settings, QPel : No
Format settings, GMC : No warppoints
Format settings, Matrix : Default (MPEG)
Muxing mode : Packed bitstream
Codec ID : XVID
Codec ID/Hint : XviD
Duration : 2h 5mn
Bit rate : 1 892 Kbps
Width : 720 pixels
Height : 288 pixels
Display aspect ratio : 2.500
Frame rate : 24.000 fps
Color space : YUV
Chroma subsampling : 4:2:0
Bit depth : 8 bits
Scan type : Progressive
Compression mode : Lossy
Bits/(Pixel*Frame) : 0.380
Stream size : 1.66 GiB (93%)
Writing library : XviD 64

Audio
ID : 1
Format : MPEG Audio
Format version : Version 1
Format profile : Layer 3
Mode : Joint stereo
Mode extension : MS Stereo
Codec ID : 55
Codec ID/Hint : MP3
Duration : 2h 5mn
Bit rate mode : Constant
Bit rate : 128 Kbps
Channel(s) : 2 channels
Sampling rate : 48.0 KHz
Compression mode : Lossy
Delay relative to video : 50ms
Stream size : 115 MiB (6%)
Alignment : Split accross interleaves
Interleave, duration : 42 ms (1.00 video frame)
Interleave, preload duration : 500 ms


Código:

http://rapidgator.net/file/dbcdd5283bcdbf268466ffe4772ad724/whj.part1.rar.html

http://rapidgator.net/file/0d390ee671d88564409332722a362792/whj.part2.rar.html

http://ul.to/46fiapu9

http://ul.to/994huk26

Valoración: 0 / 5.00 (0 votos)

Todavía no hay comentarios, se el primero!

Escribir un comentario