White House Down 2013 TS XViD-26k

escrito por Javi Sanchez el 5 julio 2013

Sin comentarios

White House Down 2013 TS XViD-26k

Código:

Format : AVI
Format/Info : Audio Video Interleave
File size : 1.87 GiB
Duration : 2h 5mn
Overall bit rate : 2 131 Kbps
Writing library : VirtualDub build 32839/release

Video
ID : 0
Format : MPEG-4 Visual
Format profile : Advanced Simple@L5
Format settings, BVOP : 2
Format settings, QPel : No
Format settings, GMC : No warppoints
Format settings, Matrix : Default (H.263)
Muxing mode : Packed bitstream
Codec ID : XVID
Codec ID/Hint : XviD
Duration : 2h 5mn
Bit rate : 1 801 Kbps
Width : 720 pixels
Height : 304 pixels
Display aspect ratio : 2.35:1
Frame rate : 24.000 fps
Color space : YUV
Chroma subsampling : 4:2:0
Bit depth : 8 bits
Scan type : Progressive
Compression mode : Lossy
Bits/(Pixel*Frame) : 0.343
Stream size : 1.58 GiB (85%)
Writing library : XviD 64

Audio
ID : 1
Format : MPEG Audio
Format version : Version 1
Format profile : Layer 3
Mode : Joint stereo
Mode extension : MS Stereo
Codec ID : 55
Codec ID/Hint : MP3
Duration : 2h 5mn
Bit rate mode : Constant
Bit rate : 320 Kbps
Channel(s) : 2 channels
Sampling rate : 44.1 KHz
Compression mode : Lossy
Delay relative to video : 16ms
Stream size : 287 MiB (15%)
Alignment : Split accross interleaves
Interleave, duration : 42 ms (1.00 video frame)
Writing library : LAME3.97

IMdb: http://www.imdb.com/title/tt2334879/

Sources
VIDEO – THC 720 file (Thanks)
AUDIO – A Friend (Thanks)

K vid is very nice.. a few dark spots but great vid overall.. did what we do then just synced and muxed A Friends COMPLETE LiNE to it…

Plot
While on a tour of the White House with his young daughter, a Capitol policeman springs into action to save his child and protect the president from a heavily armed group of paramilitary invaders.



Download:
Código:

http://uploaded.net/file/ozgfqf75/White.House.Down.2013.TS.XViD-26k.avi
or

http://uploaded.net/file/wypnsecq/White.House.Down.2013.TS.XViD-26k.part1.rar

http://uploaded.net/file/jb3v7ndx/White.House.Down.2013.TS.XViD-26k.part2.rar

Valoración: 0 / 5.00 (0 votos)

Todavía no hay comentarios, se el primero!

Escribir un comentario