White House Down 2013 TS x264-*THC

escrito por Javi Sanchez el 5 julio 2013

Sin comentarios

White House Down 2013 TS x264-*THC

Código:

Source: THC
Audio: A Friend….THANKS

http://www.imdb.com/title/tt2334879/

Format : MPEG-4
Format profile : Base Media
Codec ID : isom
File size : 1.27 GiB
Duration : 2h 5mn
Overall bit rate : 1 450 Kbps
Encoded date : UTC 2013-07-05 09:59:14
Tagged date : UTC 2013-07-05 09:59:14

Video
ID : 1
Format : AVC
Format/Info : Advanced Video Codec
Format profile : High@L3.0
Format settings, CABAC : Yes
Format settings, ReFrames : 5 frames
Format settings, GOP : M=4, N=16
Codec ID : avc1
Codec ID/Info : Advanced Video Coding
Duration : 2h 5mn
Bit rate mode : Variable
Bit rate : 1 256 Kbps
Maximum bit rate : 4 976 Kbps
Width : 720 pixels
Height : 304 pixels
Display aspect ratio : 2.35:1
Frame rate mode : Constant
Frame rate : 24.000 fps
Color space : YUV
Chroma subsampling : 4:2:0
Bit depth : 8 bits
Scan type : Progressive
Bits/(Pixel*Frame) : 0.239
Stream size : 1.10 GiB (87%)
Title : 264#trackID=1:fps=24@GPAC0.5.1-DEV-rev4283
Writing library : x264 core 133 r2334 a3ac64b
Encoding settings : cabac=1 / ref=5 / deblock=1:-1:-1 / analyse=0x3:0x133 / me=umh / subme=7 / psy=1 / psy_rd=1.10:0.15 / mixed_ref=1 / me_range=16 / chroma_me=1 / trellis=1 / 8x8dct=1 / cqm=0 / deadzone=21,11 / fast_pskip=1 / chroma_qp_offset=-5 / threads=6 / lookahead_threads=1 / sliced_threads=0 / nr=0 / decimate=1 / interlaced=0 / bluray_compat=0 / constrained_intra=0 / bframes=3 / b_pyramid=2 / b_adapt=1 / b_bias=0 / direct=1 / weightb=1 / open_gop=0 / weightp=2 / keyint=240 / keyint_min=24 / scenecut=40 / intra_refresh=0 / rc_lookahead=80 / rc=crf / mbtree=1 / crf=17.0 / qcomp=0.60 / qpmin=0 / qpmax=69 / qpstep=4 / ip_ratio=1.40 / aq=1:1.00
Encoded date : UTC 2013-07-05 09:59:14
Tagged date : UTC 2013-07-05 10:00:16

Audio
ID : 2
Format : AC-3
Format/Info : Audio Coding 3
Mode extension : CM (complete main)
Codec ID : ac-3
Duration : 2h 5mn
Bit rate mode : Constant
Bit rate : 192 Kbps
Channel(s) : 2 channels
Channel positions : Front: L R
Sampling rate : 48.0 KHz
Bit depth : 16 bits
Stream size : 172 MiB (13%)
Title : ac3#trackID=1@GPAC0.5.1-DEV-rev4283
Encoded date : UTC 2013-07-05 09:59:56
Tagged date : UTC 2013-07-05 10:00:16

Workdone:

Great source this time around…with line audio. First we rotated, crop out borders, fix perspective and resize to 720p and did our first encode. Took that file and did all types of filters like Camcorder denoiser to get rit of the mix color threw the video, Msu Denoiser, HQ Smoother to help get rit of video Noise. RGB, Contrast and Levels. We did notice video colors seem to appear and reappear threw some scene… but I think that how the video is cause of certain lighting.

AUDIO:
Line audio had some static so we clean the noise out.. and did some audio enhancements with BASS and Treble and sync it with our video.

P.S.
Watch Video on a 39" HDTV and was perfectly in sync… V8.5 A9
Completely watchable… SORRY NO SAMPLE cause we used megui to rip our 720p to a smaller size and used x264 for better quality.

ENJOY!



Download:
Código:

http://uploaded.net/file/scab472y/White%20House%20Down%202013%20TS%20×264-THC.mp4
or

http://uploaded.net/file/tkchyfxy/White%20House%20Down%202013%20TS%20×264-THC.part1.rar

http://uploaded.net/file/30atgsj3/White%20House%20Down%202013%20TS%20×264-THC.part2.rar

Valoración: 0 / 5.00 (0 votos)

Todavía no hay comentarios, se el primero!

Escribir un comentario