Transformers 4: La era de la extinción (2014) [CAM/Español Latino]

escrito por Javi Sanchez el 2 julio 2014

1 comentario

Sinopsis:
Han pasado 4 años desde el incidente de Chicago y la humanidad continua reparando los destrozos pero tanto los Autobots como los Decepticons han desaparecido de la faz de la Tierra. Ahora el Gobierno de los Estados Unidos está utilizando la tecnología rescatada en el asedio de Chicago para desarrollar sus propios Transformers. Se pone al frente del proyecto a Joshua Joyce (Stanley Tucci), un arrogante diseñador que cree que los Autobots son “basura tecnológica” y se cree capaz de realizar unos robots infinitamente más avanzados. Mientras tanto Cade Yeager (Mark Wahlberg), un inventor,encuentra un Marmon semi-trailer. Al intentar repararlo descubre que el camión no solo era un Transformer, sino que también es el mismísimo Optimus Prime, líder de los Autobots. Sin duda, Cade no sabe que este descubrimiento traería malas y buenas consecuencias para su vida.

Ficha Técnica:
Título original: Transformers 4: Age of Extinction (Transformers 4)
Otros Títulos: Transformers 4: La era de la extinción
Año: 2014
Duración: 165 min.
País: Estados Unidos
Director: Michael Bay
Guión: Ehren Kruger
Música: Steve Jablonsky
Fotografía: Amir Mokri
Reparto: Mark Wahlberg, Nicola Peltz, Jack Reynor, Stanley Tucci, Kelsey Grammer, Sophia Myles, Victoria Summer, T.J. Miller, Han Geng, Li Bingbing, Brenton Thwaites, Cleo King, Titus Welliver, Teresa Daley, Michael Wong
Productora: Paramount Pictures / Hasbro / China Movie Channel
Género: Ciencia ficción. Acción | Robots. Extraterrestres. Secuela. 3-D

Trailer:

Datos Técnicos:
CAM | AVI | 720×320 | 1.83 GB | Español Latino

Mira estos minutos de la peli, antes de descargarla:

Código:
http://moevideo.net/framevideo/62263.61b03b068494c4b170c329490a65
Código:
General
Complete name                            : Transformers 4.Cam.latino.avi
Format                                   : AVI
Format/Info                              : Audio Video Interleave
Format profile                           : OpenDML
File size                                : 1.83 GiB
Duration                                 : 2h 27mn
Overall bit rate                         : 1 774 Kbps
Writing application                      : Lavf52.84.0

Video
ID                                       : 0
Format                                   : MPEG-4 Visual
Format profile                           : Simple@L1
Format settings, BVOP                    : No
Format settings, QPel                    : No
Format settings, GMC                     : No warppoints
Format settings, Matrix                  : Default (H.263)
Codec ID                                 : XVID
Codec ID/Hint                            : XviD
Duration                                 : 2h 27mn
Bit rate                                 : 1 568 Kbps
Width                                    : 720 pixels
Height                                   : 320 pixels
Display aspect ratio                     : 2.25:1
Frame rate                               : 29.970 fps
Color space                              : YUV
Chroma subsampling                       : 4:2:0
Bit depth                                : 8 bits
Scan type                                : Progressive
Compression mode                         : Lossy
Bits/(Pixel*Frame)                       : 0.227
Stream size                              : 1.62 GiB (88%)
Writing library                          : Lavc52.97.0

Audio
ID                                       : 1
Format                                   : MPEG Audio
Format version                           : Version 1
Format profile                           : Layer 3
Mode                                     : Joint stereo
Mode extension                           : MS Stereo
Codec ID                                 : 55
Codec ID/Hint                            : MP3
Duration                                 : 2h 27mn
Bit rate mode                            : Constant
Bit rate                                 : 192 Kbps
Channel(s)                               : 2 channels
Sampling rate                            : 48.0 KHz
Compression mode                         : Lossy
Stream size                              : 203 MiB (11%)
Alignment                                : Aligned on interleaves
Interleave, duration                     : 24 ms (0.72 video frame)
Interleave, preload duration             : 24 ms

Capturas:

NOTA: Mucha gracias a todos por apoyarme, como lo prometi pondre firedriver por completo, sigan apoyándome para mantener los links : )

Descargar Gratis:

FreakShare | FireDriver

1 comentario

  1. Seriestom dice:

    exelente pelicula muy buena

Escribir un comentario