Tomorrowland: El Mundo del Mañana (2015)

escrito por Javi Sanchez el 25 mayo 2015

Sin comentarios

Sinopsis:
Unidos por un mismo destino, Frank (George Clooney) -quien fuera un niño prodigio, ahora hastiado de tantas desilusiones- y Casey (Britt Robertson) -una brillante y optimista adolescente llena de curiosidad científica- se embarcan en una peligrosa misión para develar los secretos de un enigmático lugar perdido en algún punto del tiempo y el espacio conocido como Tomorrowland. Y su misión allí cambiará al mundo, y a ellos, para siempre.

Ficha Técnica:
Título original: Tomorrowland
Otros Titulos: 1952 / Tomorrowland: El Mundo del Mañana
Año: 2015
Duración: 130 min.
País: Estados Unidos
Director: Brad Bird
Guión: Damon Lindelof, Brad Bird, Jeff Jensen
Música: Michael Giacchino
Fotografía: Claudio Miranda
Reparto: George Clooney, Hugh Laurie, Britt Robertson, Raffey Cassidy, Judy Greer, Kathryn Hahn, Lochlyn Munro, Chris Bauer, Tim McGraw, Paul McGillion, Raiden Integra
Productora: Walt Disney Pictures
Género: Ciencia ficción. Aventuras | Robots

Trailer:

Datos Técnicos:
CAM | AVI | 720×304 | 1.32 GB | Español Latino

Código:
General
Complete name                            : Tomorrowland.CAM.Latino.avi
Format                                   : AVI
Format/Info                              : Audio Video Interleave
File size                                : 1.32 GiB
Duration                                 : 2h 1mn
Overall bit rate                         : 1 559 Kbps
Writing application                      : Lavf52.84.0
Writing library                          : VirtualDub build 35491/release

Video
ID                                       : 0
Format                                   : MPEG-4 Visual
Format profile                           : Advanced Simple@L5
Format settings, BVOP                    : 2
Format settings, QPel                    : No
Format settings, GMC                     : No warppoints
Format settings, Matrix                  : Default (H.263)
Muxing mode                              : Packed bitstream
Codec ID                                 : XVID
Codec ID/Hint                            : XviD
Duration                                 : 2h 1mn
Bit rate                                 : 1 417 Kbps
Width                                    : 720 pixels
Height                                   : 304 pixels
Display aspect ratio                     : 2.35:1
Frame rate                               : 29.970 fps
Color space                              : YUV
Chroma subsampling                       : 4:2:0
Bit depth                                : 8 bits
Scan type                                : Progressive
Compression mode                         : Lossy
Bits/(Pixel*Frame)                       : 0.216
Stream size                              : 1.20 GiB (91%)
Writing library                          : XviD 64

Audio
ID                                       : 1
Format                                   : MPEG Audio
Format version                           : Version 1
Format profile                           : Layer 3
Mode                                     : Joint stereo
Mode extension                           : MS Stereo
Codec ID                                 : 55
Codec ID/Hint                            : MP3
Duration                                 : 2h 1mn
Bit rate mode                            : Constant
Bit rate                                 : 128 Kbps
Channel(s)                               : 2 channels
Sampling rate                            : 48.0 KHz
Compression mode                         : Lossy
Stream size                              : 111 MiB (8%)
Alignment                                : Aligned on interleaves
Interleave, duration                     : 24 ms (0.72 video frame)
Interleave, preload duration             : 504 ms

Capturas:

Todavía no hay comentarios, se el primero!

Escribir un comentario