The Thieves (2012) [BDRip m1080p][Cast AC3.5.1+V.O][Acción][VS]

escrito por Javi Sanchez el 5 julio 2013

Sin comentarios



Cita:

Título original
Dodookdeul (The Thieves)
Año
2012
Duración
135 min.
País
Corea del Sur
Director
Choi Dong-hun (AKA Choi Dong-hoon)
Guión
Choi Dong-hun (AKA Choi Dong-hoon), Lee Gi-cheol
Música
Jang Young-gyu, Dalpalan
Fotografía
Choi Young-hwan
Reparto
Kim Yun-Seok, Kim Hye-Soo, Lee Jung-Jae, Jun Ji-hyun (AKA Gianna Jun), Kim Hae-Suk, Kim Soo-Hyun, Simon Yam, Oh Dal-Su, Angelica Lee, Kwok Cheung Tsang, Shin Ha-Kyun, Joo Jin-Mo, Ki Guk-Seo, Choi Deok-Mun, Chae Gook-Hee, Ye Soo-Jung
Productora
Coproducción Corea del sur-China; Showbox/Mediaplex
Género
Thriller. Acción | Robos & Atracos
Sinopsis
Taquillera cinta de acción sobre un sofisticado y espectacular robo de un grupo de ladrones. Cuando Popie y sus compinches viajan a Macao para hacer un trabajo, descubren que detrás del golpe está un antiguo socio de Popie. El plan es robar un diamante, la "lágrima del Sol", que vale una fortuna. Lo malo es que ninguno sabe que cada uno tiene su propio plan. (FILMAFFINITY)



Spoiler

General
Format : Matroska
Format version : Version 4 / Version 2
File size : 4.35 GiB
Duration : 2h 15mn
Overall bit rate : 4 578 Kbps
Encoded date : UTC 2013-07-03 10:08:20
Writing application : mkvmerge v6.2.0 (‘Promised Land’) built on Apr 28 2013 12:22:01
Writing library : libebml v1.3.0 + libmatroska v1.4.0
Video
ID : 1
Format : AVC
Format/Info : Advanced Video Codec
Format profile : High@L4.0
Format settings, CABAC : Yes
Format settings, ReFrames : 4 frames
Codec ID : V_MPEG4/ISO/AVC
Duration : 2h 15mn
Bit rate : 3 700 Kbps
Width : 1 920 pixels
Height : 816 pixels
Display aspect ratio : 2.35:1
Frame rate mode : Constant
Frame rate : 24.000 fps
Color space : YUV
Chroma subsampling : 4:2:0
Bit depth : 8 bits
Scan type : Progressive
Bits/(Pixel*Frame) : 0.098
Stream size : 3.41 GiB (78%)
Writing library : x264 core 120
Encoding settings : cabac=1 / ref=4 / deblock=1:-1:-1 / analyse=0x3:0x113 / me=hex / subme=9 / psy=1 / psy_rd=1.00:0.00 / mixed_ref=1 / me_range=16 / chroma_me=1 / trellis=1 / 8x8dct=1 / cqm=0 / deadzone=21,11 / fast_pskip=1 / chroma_qp_offset=-2 / threads=12 / sliced_threads=0 / nr=0 / decimate=1 / interlaced=0 / bluray_compat=0 / constrained_intra=0 / bframes=4 / b_pyramid=2 / b_adapt=1 / b_bias=0 / direct=1 / weightb=1 / open_gop=0 / weightp=1 / keyint=240 / keyint_min=24 / scenecut=40 / intra_refresh=0 / rc_lookahead=30 / rc=abr / mbtree=1 / bitrate=3700 / ratetol=1.0 / qcomp=0.60 / qpmin=3 / qpmax=69 / qpstep=4 / ip_ratio=1.40 / aq=1:1.00
Language : English
Default : Yes
Forced : No
Color primaries : BT.709
Transfer characteristics : BT.709
Matrix coefficients : BT.709
Audio #1
ID : 2
Format : AC-3
Format/Info : Audio Coding 3
Mode extension : CM (complete main)
Format settings, Endianness : Big
Codec ID : A_AC3
Duration : 2h 15mn
Bit rate mode : Constant
Bit rate : 448 Kbps
Channel(s) : 6 channels
Channel positions : Front: L C R, Side: L R, LFE
Sampling rate : 48.0 KHz
Bit depth : 16 bits
Compression mode : Lossy
Stream size : 435 MiB (10%)
Language : Korean
Default : No
Forced : No
Audio #2
ID : 3
Format : AC-3
Format/Info : Audio Coding 3
Mode extension : CM (complete main)
Format settings, Endianness : Big
Codec ID : A_AC3
Duration : 2h 15mn
Bit rate mode : Constant
Bit rate : 448 Kbps
Channel(s) : 6 channels
Channel positions : Front: L C R, Side: L R, LFE
Sampling rate : 48.0 KHz
Bit depth : 16 bits
Compression mode : Lossy
Delay relative to video : 4ms
Stream size : 435 MiB (10%)
Language : Spanish
Default : Yes
Forced : No



LINKS INTERCAMBIABLES

*NO CAPTCHAS – Excelente Velocidad*
Código:

http://akafile.com/cypdph9swotu

http://akafile.com/aj6mrcg14jqb

http://akafile.com/69o1eznjarcw

http://akafile.com/10xdyusrh1bn

http://akafile.com/ym7l6ba0ap4v

http://akafile.com/r8exjsluq2na

Código:

http://junocloud.me/grcy0qc1ll5a/Golpe.m1080p.papianton.part1.rar

http://junocloud.me/wg3e1ruhyk91/Golpe.m1080p.papianton.part2.rar

http://junocloud.me/lj1smwxty26l/Golpe.m1080p.papianton.part3.rar

http://junocloud.me/fdzw8ikseb2r/Golpe.m1080p.papianton.part4.rar

http://junocloud.me/sfiev0k9crbb/Golpe.m1080p.papianton.part5.rar

http://junocloud.me/8pk37lxls8ak/Golpe.m1080p.papianton.part6.rar

*DESCARGAS SIN CAPTCHAS*
No disponible por el momento

Código:

http://ul.to/gahae78z

http://ul.to/271mhysp

http://ul.to/gh98dvlb

http://ul.to/fmplvui6

http://ul.to/9vhrlldl

http://ul.to/r90hi4o7
*1 LINK*
Código:

http://ul.to/3ne46j9v

Descomprimir con Winrar

Valoración: 0 / 5.00 (0 votos)

Todavía no hay comentarios, se el primero!

Escribir un comentario