The Thieves (2012) [BDRip 1080p][Cast AC3.5.1+V.O][Acción][VS]

escrito por Javi Sanchez el 8 julio 2013

Sin comentarios



Cita:

Título original
Dodookdeul (The Thieves)
Año
2012
Duración
135 min.
País
Corea del Sur
Director
Choi Dong-hun (AKA Choi Dong-hoon)
Guión
Choi Dong-hun (AKA Choi Dong-hoon), Lee Gi-cheol
Música
Jang Young-gyu, Dalpalan
Fotografía
Choi Young-hwan
Reparto
Kim Yun-Seok, Kim Hye-Soo, Lee Jung-Jae, Jun Ji-hyun (AKA Gianna Jun), Kim Hae-Suk, Kim Soo-Hyun, Simon Yam, Oh Dal-Su, Angelica Lee, Kwok Cheung Tsang, Shin Ha-Kyun, Joo Jin-Mo, Ki Guk-Seo, Choi Deok-Mun, Chae Gook-Hee, Ye Soo-Jung
Productora
Coproducción Corea del sur-China; Showbox/Mediaplex
Género
Thriller. Acción | Robos & Atracos
Sinopsis
Taquillera cinta de acción sobre un sofisticado y espectacular robo de un grupo de ladrones. Cuando Popie y sus compinches viajan a Macao para hacer un trabajo, descubren que detrás del golpe está un antiguo socio de Popie. El plan es robar un diamante, la "lágrima del Sol", que vale una fortuna. Lo malo es que ninguno sabe que cada uno tiene su propio plan. (FILMAFFINITY)



Spoiler

General
Format : Matroska
Format version : Version 4 / Version 2
File size : 11.3 GiB
Duration : 2h 15mn
Overall bit rate : 11.9 Mbps
Encoded date : UTC 2013-07-03 12:22:38
Writing application : mkvmerge v6.3.0 (‘You can’t stop me!’) built on Jun 28 2013 20:09:41
Writing library : libebml v1.3.0 + libmatroska v1.4.0
Video
ID : 1
Format : AVC
Format/Info : Advanced Video Codec
Format profile : High@L4.1
Format settings, CABAC : Yes
Format settings, ReFrames : 5 frames
Codec ID : V_MPEG4/ISO/AVC
Duration : 2h 15mn
Bit rate : 9 935 Kbps
Width : 1 920 pixels
Height : 816 pixels
Display aspect ratio : 2.35:1
Frame rate mode : Constant
Frame rate : 24.000 fps
Color space : YUV
Chroma subsampling : 4:2:0
Bit depth : 8 bits
Scan type : Progressive
Bits/(Pixel*Frame) : 0.264
Stream size : 9.20 GiB (82%)
Title : El gran golpe (The Thieves)
Writing library : x264 core 125 r2208 d9d2288
Encoding settings : cabac=1 / ref=5 / deblock=1:-3:-3 / analyse=0x3:0x113 / me=umh / subme=10 / psy=1 / psy_rd=1.00:0.05 / mixed_ref=1 / me_range=32 / chroma_me=1 / trellis=2 / 8x8dct=1 / cqm=0 / deadzone=21,11 / fast_pskip=0 / chroma_qp_offset=-2 / threads=8 / lookahead_threads=1 / sliced_threads=0 / nr=0 / decimate=1 / interlaced=0 / bluray_compat=0 / constrained_intra=0 / bframes=5 / b_pyramid=2 / b_adapt=2 / b_bias=0 / direct=3 / weightb=1 / open_gop=0 / weightp=2 / keyint=250 / keyint_min=24 / scenecut=40 / intra_refresh=0 / rc=2pass / mbtree=0 / bitrate=9935 / ratetol=1.0 / qcomp=0.70 / qpmin=0 / qpmax=69 / qpstep=4 / cplxblur=20.0 / qblur=0.5 / ip_ratio=1.40 / pb_ratio=1.30 / aq=2:1.00
Language : Korean
Default : No
Forced : No
Audio #1
ID : 2
Format : AC-3
Format/Info : Audio Coding 3
Mode extension : CM (complete main)
Format settings, Endianness : Big
Codec ID : A_AC3
Duration : 2h 15mn
Bit rate mode : Constant
Bit rate : 448 Kbps
Channel(s) : 6 channels
Channel positions : Front: L C R, Side: L R, LFE
Sampling rate : 48.0 KHz
Bit depth : 16 bits
Compression mode : Lossy
Delay relative to video : 5s 600ms
Stream size : 435 MiB (4%)
Title : Castellano AC3 5.1
Language : Spanish
Default : Yes
Forced : No
Audio #2
ID : 3
Format : DTS
Format/Info : Digital Theater Systems
Mode : 16
Format settings, Endianness : Big
Codec ID : A_DTS
Duration : 2h 15mn
Bit rate mode : Constant
Bit rate : 1 509 Kbps
Channel(s) : 6 channels
Channel positions : Front: L C R, Side: L R, LFE
Sampling rate : 48.0 KHz
Bit depth : 24 bits
Compression mode : Lossy
Stream size : 1.43 GiB (13%)
Title : Koreano DTS 5.1
Language : Korean
Default : No
Forced : No
Text #1
ID : 4
Format : UTF-8
Codec ID : S_TEXT/UTF8
Codec ID/Info : UTF-8 Plain Text
Title : Completos
Language : Spanish
Default : Yes
Forced : No
Text #2
ID : 5
Format : UTF-8
Codec ID : S_TEXT/UTF8
Codec ID/Info : UTF-8 Plain Text
Title : Completos
Language : English
Default : No
Forced : No



LINKS INTERCAMBIABLES

*NO CAPTCHAS – Excelente Velocidad*

Código:

http://akafile.com/guxdmgsl6x59

http://akafile.com/k0cbhggmgezs

http://akafile.com/amcaazzyjedh

http://akafile.com/4e5ghivguf3w

http://akafile.com/26jycwe6x07m

http://akafile.com/fia6adcob44x

http://akafile.com/oj8qbafg4u9c

http://akafile.com/49dl468w3tky

http://akafile.com/h4hbq4bo4rvy

http://akafile.com/odbbnlz2xqtp

http://akafile.com/yrlohr5sxerx

http://akafile.com/7udk3wuxq2zn

http://akafile.com/hw1gl0bt7ikq

http://akafile.com/o24nbjkrk6bd

http://akafile.com/9ra0odwgkys3

http://akafile.com/ic3urnlni7qg

http://akafile.com/3xu6be3aoglo

http://akafile.com/e3i4zmiwxt42

http://akafile.com/b9ejjufjuw89

http://akafile.com/ro8gdfmnin0k

http://akafile.com/iehb8hv7ha9f

http://akafile.com/owhw5zt6ymg5

http://akafile.com/t1r9x964b4h3

http://akafile.com/scki0o8gv8xo

Código:

http://junocloud.me/rigom8180vmr/golp.BDrip.1080p.papianton.part01.rar

http://junocloud.me/yk37bkndxcoc/golp.BDrip.1080p.papianton.part02.rar

http://junocloud.me/d726w4vgwvnv/golp.BDrip.1080p.papianton.part03.rar

http://junocloud.me/6chfbd2u7u38/golp.BDrip.1080p.papianton.part04.rar

http://junocloud.me/l3md2w1qnq6m/golp.BDrip.1080p.papianton.part05.rar

http://junocloud.me/dxbusl3d053m/golp.BDrip.1080p.papianton.part06.rar

http://junocloud.me/ouw9t77bu4l4/golp.BDrip.1080p.papianton.part07.rar

http://junocloud.me/r6i1q1wjf932/golp.BDrip.1080p.papianton.part08.rar

http://junocloud.me/acbi1uff5b4g/golp.BDrip.1080p.papianton.part09.rar

http://junocloud.me/r42swpdawjke/golp.BDrip.1080p.papianton.part10.rar

http://junocloud.me/ssq85hv1j7bt/golp.BDrip.1080p.papianton.part11.rar

http://junocloud.me/vzpt7gnp9gl2/golp.BDrip.1080p.papianton.part12.rar

http://junocloud.me/xmrjaddztudk/golp.BDrip.1080p.papianton.part13.rar

http://junocloud.me/gs9voh3fy0kg/golp.BDrip.1080p.papianton.part14.rar

http://junocloud.me/460a2lg10d7y/golp.BDrip.1080p.papianton.part15.rar

http://junocloud.me/1x1pwju5laue/golp.BDrip.1080p.papianton.part16.rar

http://junocloud.me/6pl1b87s0d3l/golp.BDrip.1080p.papianton.part17.rar

http://junocloud.me/tsfox3ab39as/golp.BDrip.1080p.papianton.part18.rar

http://junocloud.me/4gd5o9zwbqhv/golp.BDrip.1080p.papianton.part19.rar

http://junocloud.me/oold2iemnbg2/golp.BDrip.1080p.papianton.part20.rar

http://junocloud.me/5tv57vyt5ucf/golp.BDrip.1080p.papianton.part21.rar

http://junocloud.me/qlkbnicfcadd/golp.BDrip.1080p.papianton.part22.rar

http://junocloud.me/wxzoqids0aga/golp.BDrip.1080p.papianton.part23.rar

http://junocloud.me/zuf30ncmvhql/golp.BDrip.1080p.papianton.part24.rar

*DESCARGAS SIN CAPTCHAS*
Código:

http://muchshare.net/cd2dz2bsu87f

http://muchshare.net/edguciu63lt7

http://muchshare.net/cbeud6swjl22

http://muchshare.net/9beacr0f1bj4

http://muchshare.net/2sixx7kby3rk

http://muchshare.net/rbhyei4vwukz

http://muchshare.net/jhy9glnujgsr

http://muchshare.net/qyy3g64vnhg3

http://muchshare.net/qbz8eq0zpoit

http://muchshare.net/9blz85z1ei1m

http://muchshare.net/0z0m0gc4vmgd

http://muchshare.net/tnydj0u2f5hu

http://muchshare.net/0gnr15ep6rm9

http://muchshare.net/fkkkadfk38hh

http://muchshare.net/vyqcgii0u9xh

http://muchshare.net/aahanzeo7y72

http://muchshare.net/cxl9ogd1txyn

http://muchshare.net/6ney83timlhr

http://muchshare.net/bf5sqq4503d5

http://muchshare.net/hahvoilhb6rg

http://muchshare.net/bwbhugzzez8b

http://muchshare.net/7obzw766vlub

http://muchshare.net/bozv35uck2ll

http://muchshare.net/zgm0b7fjl9f5

Código:

http://ul.to/7c7sofc6

http://ul.to/u3v5hql1

http://ul.to/u4npgxtf

http://ul.to/i5bpzynd

http://ul.to/i0apr5am

http://ul.to/xvwjo453

http://ul.to/7i227u0r

http://ul.to/9wpb3u7t

http://ul.to/hea9s667

http://ul.to/1nfe198m

http://ul.to/sg28olbk

http://ul.to/z9usbtvc

http://ul.to/iklyc0vy

http://ul.to/gqwakhp2

http://ul.to/d08h8itx

http://ul.to/6betb7n3

http://ul.to/s15cgytz

http://ul.to/92ejn5r2

http://ul.to/k4ie6l8z

http://ul.to/m21b0pxy

http://ul.to/5y61geqf

http://ul.to/3wmm4nso

http://ul.to/4roatuos

http://ul.to/fyiwdhyx
Descomprimir con Winrar

Valoración: 0 / 5.00 (0 votos)

Todavía no hay comentarios, se el primero!

Escribir un comentario