The Master (2012) | MicroHD 720p | Dual, Español Castellano-Ingles | 3.43 GB |

escrito por Javi Sanchez el 7 mayo 2013

Sin comentarios

The Master (2012) | MicroHD 720p | Dual, Español Castellano-Ingles | 3.43 GB | Drama |



Título original:

The Master
Año:
2012
Duración:
137 min.
País:
Estados Unidos
Director:
Paul Thomas Anderson
Guión:
Paul Thomas Anderson
Música:
Jonny Greenwood
Fotografía:Mihai Malaimare Jr.
Reparto:
Joaquin Phoenix, Philip Seymour Hoffman, Amy Adams, Laura Dern, Kevin J. O’Connor, Rami Malek, Jesse Plemons, Fiona Dourif, David Warshofsky, Lena Endre, Ambyr Childers
Productora:
The Weinstein Company / Annapurna Pictures / Ghoulardi Film Company
Género:
Drama | Años 50. Religión. Sectas


Drama sobre la Iglesia de la Cienciología. Lancaster Dodd (Seymour Hoffman), un intelectual brillante y de fuertes convicciones, crea una organización religiosa que empieza a hacerse popular en Estados Unidos hacia 1952. Freddie Quell (Joaquin Phoenix), un joven vagabundo, se convertirá en la mano derecha de este líder religioso. Sin embargo, cuando la secta triunfa y consigue atraer a numerosos y fervientes seguidores, a Freddie le surgirán dudas.


Formato:MKV
Calidad:BDRip | m720p | AC3-5.1 |
Resolucion:1280×692
Tamaño:3.43 GB
Audios:Español Castellano, Ingles
Subtítulos:Español, Ingles + Forzados
Servidor: letitbit,RAPITGATOR, uploaded, FREAKSHARE
Uploader:Camix2012

Código:

General
Format : Matroska
Format version : Version 2
File size : 3.43 GiB
Duration : 2h 17mn
Overall bit rate : 3 575 Kbps
Movie name : By Yamil
Encoded date : UTC 2013-05-02 21:51:36
Writing application : mkvmerge v5.3.0 (‘I could have danced’) built on Feb 9 2012 10:38:07
Writing library : libebml v1.2.3 + libmatroska v1.3.0
Video
ID : 1
Format : AVC
Format/Info : Advanced Video Codec
Format profile : High@L4.1
Format settings, CABAC : Yes
Format settings, ReFrames : 9 frames
Codec ID : V_MPEG4/ISO/AVC
Duration : 2h 17mn
Bit rate : 2 677 Kbps
Width : 1 280 pixels
Height : 692 pixels
Display aspect ratio : 1.850
Frame rate : 23.976 fps
Color space : YUV
Chroma subsampling : 4:2:0
Bit depth : 8 bits
Scan type : Progressive
Bits/(Pixel*Frame) : 0.126
Stream size : 2.50 GiB (73%)
Writing library : x264 core 129 r2245 bc13772
Encoding settings : cabac=1 / ref=9 / deblock=1:-3:-3 / analyse=0×3:0×113 / me=umh / subme=10 / psy=1 / psy_rd=1.00:0.00 / mixed_ref=1 / me_range=16 / chroma_me=1 / trellis=2 / 8x8dct=1 / cqm=0 / deadzone=21,11 / fast_pskip=1 / chroma_qp_offset=-2 / threads=12 / lookahead_threads=2 / sliced_threads=0 / nr=0 / decimate=1 / interlaced=0 / bluray_compat=0 / constrained_intra=0 / bframes=3 / b_pyramid=2 / b_adapt=1 / b_bias=0 / direct=1 / weightb=1 / open_gop=0 / weightp=2 / keyint=250 / keyint_min=23 / scenecut=40 / intra_refresh=0 / rc=2pass / mbtree=0 / bitrate=2677 / ratetol=1.0 / qcomp=0.60 / qpmin=0 / qpmax=69 / qpstep=4 / cplxblur=20.0 / qblur=0.5 / ip_ratio=1.40 / pb_ratio=1.30 / aq=1:0.80
Language : Spanish
Default : Yes
Forced : No
Audio #1
ID : 2
Format : AC-3
Format/Info : Audio Coding 3
Mode extension : CM (complete main)
Codec ID : A_AC3
Duration : 2h 17mn
Bit rate mode : Constant
Bit rate : 448 Kbps
Channel(s) : 6 channels
Channel positions : Front: L C R, Side: L R, LFE
Sampling rate : 48.0 KHz
Bit depth : 16 bits
Compression mode : Lossy
Stream size : 441 MiB (13%)
Language : Spanish
Default : Yes
Forced : No
Audio #2
ID : 3
Format : AC-3
Format/Info : Audio Coding 3
Mode extension : CM (complete main)
Codec ID : A_AC3
Duration : 2h 17mn
Bit rate mode : Constant
Bit rate : 448 Kbps
Channel(s) : 6 channels
Channel positions : Front: L C R, Side: L R, LFE
Sampling rate : 48.0 KHz
Bit depth : 16 bits
Compression mode : Lossy
Stream size : 441 MiB (13%)
Language : English
Default : No
Forced : No
Text #1
ID : 4
Format : UTF-8
Codec ID : S_TEXT/UTF8
Codec ID/Info : UTF-8 Plain Text
Title : Forzados
Language : Spanish
Default : Yes
Forced : No
Text #2
ID : 5
Format : UTF-8
Codec ID : S_TEXT/UTF8
Codec ID/Info : UTF-8 Plain Text
Language : Spanish
Default : No
Forced : No
Text #3
ID : 6
Format : UTF-8
Codec ID : S_TEXT/UTF8
Codec ID/Info : UTF-8 Plain Text
Language : English
Default : No
Forced : No
Menu
00:00:00.000 : en:Chapter 1
00:17:31.217 : en:Chapter 2
00:36:38.446 : en:Chapter 3
00:54:55.125 : en:Chapter 4
01:16:39.220 : en:Chapter 5
01:34:52.228 : en:Chapter 6
01:47:17.848 : en:Chapter 7
01:55:45.522 : en:Chapter 8








Links protegidos

1 solo link

Link
http://ncrypt.in/folder-vQWIkITW
1 Link de 3.43 GB
Contraseña:camix


Multiples Links en intercambiables

Links
http://ncrypt.in/folder-hKlRHoGw
Contraseña:camix



Links
http://ncrypt.in/folder-5tbEkqhN
Contraseña:camix



Links
http://ncrypt.in/folder-mot5tVAc
Contraseña:camix

Todavía no hay comentarios, se el primero!

Escribir un comentario