The Lone Ranger 2013 TS READNFO XViD – JUSTiCE

escrito por Javi Sanchez el 12 julio 2013

Sin comentarios


The Lone Ranger 2013 TS READNFO XViD – JUSTiCE


Código:

SOURCE : VIDEO – RAVERS / AUDIO – AFRIEND

Video and audio both cleaned and given justice.
Check sample and see…..

Ok video first …video was really nice Q too be honest,but had wonky borders due to being cammed
at an angle.Also noticed when in vdub the fast action scenes started to break up…also the contrast
and brightness levels were off that caused some glare.

Audio …very nice line audio but due to being FM sourced you sometimes get static or hissing etc..which
is the case but much better than previous audios eg monster uni etc…

Right so first off dropped the video in vdub and used the quad filter to level up the top and bottom,then
pulled in the right handside a touch as it was sloping left to right.From there used null to crop the borders.
After it as a case fixing the contrast and brightness levels and using the intes to lower the glares/bright spots,then
changed the colouring with rgb eq and reszied it.
Finally i used a HQ smoother to smooth out the breaks up that happened during the action scenes,whilst also balancing
out the sharpness so didn’t lose too much detail.
Oh also cut the unwanted video that was left in ;-) ….if ya seen the sors files you’ll know….but you don’t miss ANY
of the film still.

Audio was syncd to our rip ….pretty straight forward if honest,then it was dropped in adobe and remastered it changing the
EQ bands to balance it out better aswell as removing some of the hiss this way before removing the rest of the hiss with a removal
filter.

Overall …a vert nice TS indeed IMHO …V8 A8 M7 :)

DME2 next :)

Video
ID : 0
Format : MPEG-4 Visual
Format profile : Advanced Simple@L5
Format settings, BVOP : 2
Format settings, QPel : No
Format settings, GMC : No warppoints
Format settings, Matrix : Default (MPEG)
Muxing mode : Packed bitstream
Codec ID : XVID
Codec ID/Hint : XviD
Duration : 2h 20mn
Bit rate : 1 675 Kbps
Width : 720 pixels
Height : 336 pixels
Display aspect ratio : 2.2:1
Frame rate : 24.000 fps
Color space : YUV
Chroma subsampling : 4:2:0
Bit depth : 8 bits
Scan type : Progressive
Compression mode : Lossy
Bits/(Pixel*Frame) : 0.289
Stream size : 1.64 GiB (89%)
Writing library : XviD 64

Audio
ID : 1
Format : MPEG Audio
Format version : Version 1
Format profile : Layer 3
Mode : Joint stereo
Codec ID : 55
Codec ID/Hint : MP3
Duration : 2h 20mn
Bit rate mode : Constant
Bit rate : 192 Kbps
Channel(s) : 2 channels
Sampling rate : 48.0 KHz
Compression mode : Lossy
Stream size : 193 MiB (10%)
Alignment : Split accross interleaves
Interleave, duration : 42 ms (1.00 video frame)
Interleave, preload duration : 500 ms









Código:

http://ul.to/403sc8jl

http://ul.to/ary7869p

http://rapidgator.net/file/44b73ba0c55a1c27dca308d86f28bc7b/rjus.part1.rar.html

http://rapidgator.net/file/b0dc66c66fea3fb7b859c06930675df2/rjus.part2.rar.html

Valoración: 0 / 5.00 (0 votos)

Todavía no hay comentarios, se el primero!

Escribir un comentario