The Last Will And Testament Of Rosalind Leigh 2012 DVDRiP

escrito por Javi Sanchez el 12 julio 2013

Sin comentarios

The Last Will And Testament Of Rosalind Leigh 2012 DVDRiP AC3-5 1 XviD-AXED


Código:

http://www.imdb.com/title/tt2332831/

PLOT INFO: An antiques collector inherits a house from his estranged mother only to discover that she had been living in a shrine devoted to a mysterious cult. Soon, he comes to suspect that his mother’s oppressive spirit still lingers within her home and is using items in the house to contact him with an urgent message.

Media Info:

General
Complete name : The.Last.Will.And.Testament.Of.Rosalind.Leigh.2012.DVDRiP.AC3-5.1.XviD-AXED.avi
Format : AVI
Format/Info : Audio Video Interleave
File size : 1.90 GiB
Duration : 1h 20mn
Overall bit rate : 3 391 Kbps

Video
ID : 0
Format : MPEG-4 Visual
Format profile : Advanced Simple@L5
Format settings, BVOP : 1
Format settings, QPel : No
Format settings, GMC : No warppoints
Format settings, Matrix : Default (H.263)
Codec ID : XVID
Codec ID/Hint : XviD
Duration : 1h 20mn
Bit rate : 2 935 Kbps
Width : 720 pixels
Height : 400 pixels
Display aspect ratio : 16:9
Frame rate : 23.976 fps
Color space : YUV
Chroma subsampling : 4:2:0
Bit depth : 8 bits
Scan type : Progressive
Compression mode : Lossy
Bits/(Pixel*Frame) : 0.425
Stream size : 1.65 GiB (87%)
Writing library : XviD 1.2.1 (UTC 2008-12-04)

Audio
ID : 1
Format : AC-3
Format/Info : Audio Coding 3
Mode extension : CM (complete main)
Codec ID : 2000
Duration : 1h 20mn
Bit rate mode : Constant
Bit rate : 448 Kbps
Channel(s) : 6 channels
Channel positions : Front: L C R, Side: L R, LFE
Sampling rate : 48.0 KHz
Bit depth : 16 bits
Compression mode : Lossy
Stream size : 257 MiB (13%)
Alignment : Aligned on interleaves
Interleave, duration : 64 ms (1.53 video frames)
Interleave, preload duration : 192 ms
Title : VTS_07_1 T80 3_2ch 448Kbps DELAY 0ms

Código:

http://ul.to/yd8k6e8i

http://ul.to/cv0qyyei

http://ul.to/sbeq7asc

http://rapidgator.net/file/710759e8458aab4e0955a749adf0edd7/The.L.part1.rar.html

http://rapidgator.net/file/5aa2152e876d33ce072948fb8d6e7868/The.L.part2.rar.html

http://rapidgator.net/file/2683dd37eeceeebfe71de3b64712c7aa/The.L.part3.rar.html

Valoración: 0 / 5.00 (0 votos)

Todavía no hay comentarios, se el primero!

Escribir un comentario