The Host (La huésped) [BDrip 720][Ac3-DTSHD (es-ES);DTS (en-US)][sci-Fi][2013]

escrito por Javi Sanchez el 14 julio 2013

Sin comentarios



The Host (La huésped)

Cita:

Título original The Host
Año 2013
Duración 125 min.
País [Estados Unidos] Estados Unidos
Director Andrew Niccol
Guión Andrew Niccol (Novela: Stephenie Meyer)
Música Antonio Pinto
Fotografía Roberto Schaefer
Reparto Saoirse Ronan, Max Irons, Diane Kruger, William Hurt, Jake Abel, Frances Fisher, Chandler Canterbury, Boyd Holbrook
Productora Open Road Films / Chockstone Pictures / Nick Wechsler Productions
Género Ciencia ficción. Thriller. Romance | Extraterrestres

SINOPSIS: La Tierra ha sido invadida por unos seres que se alojan en el cuerpo de los hombres y controlan sus mentes. Para Wanderer, la criatura que habita el cuerpo de Melanie, no es fácil acostumbrarse a soportar emociones, sentimientos y recuerdos demasiado intensos, pero la principal dificultad consiste en que Melanie lucha por conservar el control de su mente llenándola con recuerdos de Jared, el hombre que ama. La intensidad de estos sentimientos domina hasta tal punto a Wanderer que acaba deseando a un hombre al que jamás ha visto. Una serie de circunstancias, hacen que ambas, muy a su pesar, se alíen y partan en busca del hombre amado. Adaptación de la novela de Stephenie Meyer, autora de la saga de "Crepúsculo" -Twilight-. (FILMAFFINITY)

Spoiler

Format : Matroska
Format version : Version 4 / Version 2
File size : 7.65 GiB
Duration : 2h 5mn
Overall bit rate mode : Variable
Overall bit rate : 8 720 Kbps
Movie name : The Host (La huésped) 720 Baalberith
Encoded date : UTC 2013-07-14 16:27:56
Writing application : mkvmerge v6.3.0 (‘You can’t stop me!’) built on Jun 28 2013 20:09:41
Writing library : libebml v1.3.0 + libmatroska v1.4.0
Video
ID : 1
Format : AVC
Format/Info : Advanced Video Codec
Format profile : High@L4.1
Format settings, CABAC : Yes
Format settings, ReFrames : 10 frames
Codec ID : V_MPEG4/ISO/AVC
Duration : 2h 5mn
Bit rate : 4 762 Kbps
Width : 1 280 pixels
Height : 534 pixels
Display aspect ratio : 2.40:1
Frame rate : 23.976 fps
Color space : YUV
Chroma subsampling : 4:2:0
Bit depth : 8 bits
Scan type : Progressive
Bits/(Pixel*Frame) : 0.291
Stream size : 4.24 GiB (55%)
Title : The Host (La huésped) 720 Baalberith
Writing library : x264 core 125 r2208 d9d2288
Encoding settings : cabac=1 / ref=10 / deblock=1:-3:-3 / analyse=0x3:0x113 / me=umh / subme=10 / psy=1 / psy_rd=1.00:0.05 / mixed_ref=1 / me_range=32 / chroma_me=1 / trellis=2 / 8x8dct=1 / cqm=0 / deadzone=21,11 / fast_pskip=0 / chroma_qp_offset=-2 / threads=8 / lookahead_threads=1 / sliced_threads=0 / nr=0 / decimate=1 / interlaced=0 / bluray_compat=0 / constrained_intra=0 / bframes=4 / b_pyramid=2 / b_adapt=2 / b_bias=0 / direct=3 / weightb=1 / open_gop=0 / weightp=2 / keyint=250 / keyint_min=23 / scenecut=40 / intra_refresh=0 / rc=2pass / mbtree=0 / bitrate=4762 / ratetol=1.0 / qcomp=0.70 / qpmin=0 / qpmax=69 / qpstep=4 / cplxblur=20.0 / qblur=0.5 / ip_ratio=1.40 / pb_ratio=1.30 / aq=2:1.00
Language : Spanish
Default : Yes
Forced : No
Audio #1
ID : 2
Format : AC-3
Format/Info : Audio Coding 3
Mode extension : CM (complete main)
Format settings, Endianness : Big
Codec ID : A_AC3
Duration : 2h 5mn
Bit rate mode : Constant
Bit rate : 640 Kbps
Channel(s) : 6 channels
Channel positions : Front: L C R, Side: L R, LFE
Sampling rate : 48.0 KHz
Bit depth : 16 bits
Compression mode : Lossy
Stream size : 575 MiB (7%)
Title : Ac3 5.1@640 kbps
Language : Spanish
Default : Yes
Forced : No
Audio #2
ID : 3
Format : DTS
Format/Info : Digital Theater Systems
Format profile : MA / Core
Codec ID : A_DTS
Duration : 2h 5mn
Bit rate mode : Variable
Bit rate : 1 561 Kbps / 1 510 Kbps
Channel(s) : 6 channels
Channel positions : Front: L C R, Side: L R, LFE
Sampling rate : 48.0 KHz
Bit depth : 16 bits
Compression mode : Lossless / Lossy
Title : DTSHD@BluRay
Language : Spanish
Default : No
Forced : No
Audio #3
ID : 4
Format : DTS
Format/Info : Digital Theater Systems
Codec ID : A_DTS
Duration : 2h 5mn
Bit rate mode : Constant
Bit rate : 1 510 Kbps
Channel(s) : 6 channels
Channel positions : Front: L C R, Side: L R, LFE
Sampling rate : 48.0 KHz
Bit depth : 24 bits
Compression mode : Lossy
Stream size : 1.32 GiB (17%)
Title : DTS 5.1@1510 kbps
Language : English
Default : No
Forced : No
Text #1
ID : 5
Format : UTF-8
Codec ID : S_TEXT/UTF8
Codec ID/Info : UTF-8 Plain Text
Title : Forzados
Language : Spanish
Default : Yes
Forced : No
Text #2
ID : 6
Format : UTF-8
Codec ID : S_TEXT/UTF8
Codec ID/Info : UTF-8 Plain Text
Title : Spanish
Language : Spanish
Default : No
Forced : No
Text #3
ID : 7
Format : UTF-8
Codec ID : S_TEXT/UTF8
Codec ID/Info : UTF-8 Plain Text
Title : English
Language : English
Default : No
Forced : No
Menu
00:00:00.000 : en:00:00:00.000
00:06:03.530 : en:00:06:03.530
00:12:12.398 : en:00:12:12.398
00:20:29.770 : en:00:20:29.770
00:25:19.727 : en:00:25:19.727
00:31:01.234 : en:00:31:01.234
00:35:37.135 : en:00:35:37.135
00:40:02.317 : en:00:40:02.317
00:45:39.153 : en:00:45:39.153
00:51:08.482 : en:00:51:08.482
00:55:26.198 : en:00:55:26.198
01:03:49.951 : en:01:03:49.951
01:13:51.761 : en:01:13:51.761
01:18:54.355 : en:01:18:54.355
01:27:54.144 : en:01:27:54.144
01:32:36.468 : en:01:32:36.468
01:37:53.284 : en:01:37:53.284
01:46:51.697 : en:01:46:51.697
01:52:23.528 : en:01:52:23.528
01:57:30.669 : en:01:57:30.669

Tamaño:7,65Gb
Formato / Contenedor: Matroska
Video Codec: AVC
Profile: High@L4.1 Marcos:10
Resolución: 1280×534
Audio 1: Spanish Ac3 640 Kbps 6 channels
Audio 2: Spanish DTSHD Variable Kbps 6 channels
Audio 3: English DTS 1510 Kbps 6 channels
Subtitulos:Forzados,Spanish,English (Planos)
Servidor(es) : Rapidgator,DDLStorage,Uploaded.net,Bitshare,Putloc ker (98%-2)…INTERCAMBIABLES.
Formato Compresión : Comprimido y partido en 17 partes con winrar
Archivos recuperación : Contiene 3 archivos de recuperación rar (Se abren con winrar)
Verificación : 1 archivo verificador
Sample:SI Contiene sample de aprx.100-150mb para ver calidad audio/video/subs,sincronizacion etc.
Capitulos:SI contiene capitulos.
Recuperacion:SI, cada archivo consta de un 5% de recuperacion.
Descargar The Host (La huésped) 720p
INFORMACION: Montaje,sincronizacion-audio-subtitulos: Baalberith
Código:

http://e70b2483.miniurls.co
Código:

http://adf.ly/S6p6m

Un saludo.

Valoración: 0 / 5.00 (0 votos)

Todavía no hay comentarios, se el primero!

Escribir un comentario