The Bodyguard (1992) [BRrip 1080p.x264][Ingles, Sub.Esp][VS]

escrito por Javi Sanchez el 8 julio 2013

Sin comentarios



Cita:

Título original
The Bodyguard
Año
1992
Duración
129 min.
País
Estados Unidos
Director
Mick Jackson
Guión
Lawrence Kasdan
Música
Alan Silvestri
Fotografía
Andrew Dunn
Reparto
Kevin Costner, Whitney Houston, Gary Kemp, Bill Cobbs, Mike Starr, Richard Schiff, Ralph Waite, Tomas Arana
Productora
Warner Bros
Género
Intriga. Drama. Romance | Asesinos en serie
Sinopsis
Una cantante famosa (Houston) que recibe constantemente cartas anónimas con amenazas de muerte contrata a un guardaespaldas profesional para que la proteja (Costner). Sin embargo, ella no está de acuerdo con los métodos empleados por su protector. (FILMAFFINITY)


Spoiler

Spoiler

General
Format : MPEG-4
Format profile : Base Media
Codec ID : isom
File size : 1.40 GiB
Duration : 2h 9mn
Overall bit rate mode : Variable
Overall bit rate : 1 551 Kbps
Encoded date : UTC 2012-03-24 01:38:15
Tagged date : UTC 2012-03-24 01:38:15
Video
ID : 1
Format : AVC
Format/Info : Advanced Video Codec
Format profile : High@L5.0
Format settings, CABAC : Yes
Format settings, ReFrames : 5 frames
Codec ID : avc1
Codec ID/Info : Advanced Video Coding
Duration : 2h 9mn
Bit rate : 1 485 Kbps
Maximum bit rate : 6 027 Kbps
Width : 1 920 pixels
Height : 1 080 pixels
Display aspect ratio : 16:9
Frame rate mode : Constant
Frame rate : 23.976 fps
Color space : YUV
Chroma subsampling : 4:2:0
Bit depth : 8 bits
Scan type : Progressive
Bits/(Pixel*Frame) : 0.030
Stream size : 1.34 GiB (96%)
Writing library : x264 core 120 r2164 da19765
Encoding settings : cabac=1 / ref=5 / deblock=1:-2:-1 / analyse=0x3:0x113 / me=umh / subme=5 / psy=1 / psy_rd=1.00:0.00 / mixed_ref=1 / me_range=16 / chroma_me=1 / trellis=1 / 8x8dct=1 / cqm=0 / deadzone=21,11 / fast_pskip=1 / chroma_qp_offset=0 / threads=12 / sliced_threads=0 / nr=0 / decimate=1 / interlaced=0 / bluray_compat=0 / constrained_intra=0 / bframes=16 / b_pyramid=2 / b_adapt=1 / b_bias=0 / direct=3 / weightb=1 / open_gop=0 / weightp=2 / keyint=240 / keyint_min=23 / scenecut=40 / intra_refresh=0 / rc=2pass / mbtree=0 / bitrate=1485 / ratetol=1.0 / qcomp=0.60 / qpmin=10 / qpmax=51 / qpstep=4 / cplxblur=20.0 / qblur=0.5 / ip_ratio=1.40 / pb_ratio=1.30 / aq=2:1.00
Encoded date : UTC 2012-03-24 01:38:15
Tagged date : UTC 2012-03-24 01:39:44
Audio
ID : 2
Format : AAC
Format/Info : Advanced Audio Codec
Format profile : HE-AAC / LC
Codec ID : 40
Duration : 2h 9mn
Bit rate mode : Variable
Bit rate : 64.0 Kbps
Maximum bit rate : 71.3 Kbps
Channel(s) : 2 channels
Channel positions : Front: L R
Sampling rate : 22.05 KHz / 11.025 KHz
Compression mode : Lossy
Stream size : 59.2 MiB (4%)
Encoded date : UTC 2012-03-24 01:39:36
Tagged date : UTC 2012-03-24 01:39:44



LINKS INTERCAMBIABLES
SUBTITULO
Código:

http://filecloud.io/zsojp0nr


*NO CAPTCHAS – Excelente Velocidad*
Código:

http://akafile.com/x1j928hbtz04
http://akafile.com/akom9pr0t3fb

NO DISPONIBLE POR EL MOMENTO

*DESCARGAS SIN CAPTCHAS*
Código:

http://muchshare.net/g1rc72nxkk51
http://muchshare.net/hdmjji8pm0vs

Código:

http://ul.to/58hlntz0
http://ul.to/cf4cq1u2
*1 LINK*
Código:

http://ul.to/dpg6rwt1

Descomprimir con Winrar

Valoración: 0 / 5.00 (0 votos)

Todavía no hay comentarios, se el primero!

Escribir un comentario