SUCKER PUNCH (2011) DVDRiP [1LinK][DF-LB-FS-NL-RYU]

escrito por Javi Sanchez el 6 julio 2013

Sin comentarios




Code:
Sucker.Punch.2011.DVDrip.XViD-nCode
Format : AVI
Format/Info : Audio Video Interleave
File size : 699 MiB
Duration : 1h 49mn
Overall bit rate : 891 Kbps
Video
ID : 0
Format : MPEG-4 Visual
Format profile : Advanced Simple@L5
Format settings, BVOP : 2
Format settings, QPel : No
Format settings, GMC : No warppoints
Format settings, Matrix : Default (H.263)
Codec ID : XVID
Codec ID/Hint : XviD
Duration : 1h 49mn
Bit rate : 757 Kbps
Width : 624 pixels
Height : 256 pixels
Display aspect ratio : 2.40:1
Frame rate : 23.976 fps
Color space : YUV
Chroma subsampling : 4:2:0
Bit depth : 8 bits
Scan type : Progressive
Compression mode : Lossy
Bits/(Pixel*Frame) : 0.198
Stream size : 594 MiB (85%)
Writing library : XviD 1.2.1 (UTC 2008-12-04)
Audio
ID : 1
Format : MPEG Audio
Format version : Version 1
Format profile : Layer 3
Mode : Joint stereo
Mode extension : MS Stereo
Codec ID : 55
Codec ID/Hint : MP3
Duration : 1h 49mn
Bit rate mode : Constant
Bit rate : 128 Kbps
Channel(s) : 2 channels
Sampling rate : 48.0 KHz
Compression mode : Lossy
Stream size : 100 MiB (14%)
Alignment : Aligned on interleaves
Interleave, duration : 167 ms (4.00 video frames)
Interleave, preload duration : 216 ms
Title : ripped by nCODE
Writing library : LAME3.98r
Encoding settings : -m j -V 4 -q 2 -lowpass 17 -b 128
thanks to Rx for the DVDR.
removed a little grain, denoised and sharpened the video.
i am happy with the result, the filters gave it that bit more life!
i hope you njoy Sucker Punch!!
beware of fakers
please download nCODE movies from nCODE accounts!











Código:

https://gist.github.com/kraken2702/5276415
Código:

http://youlink.in/l/19927

Valoración: 0 / 5.00 (0 votos)

Todavía no hay comentarios, se el primero!

Escribir un comentario