Star Trek Into Darkness (2013) TS MP3 MURDER

escrito por Javi Sanchez el 12 julio 2013

Sin comentarios

Star Trek Into Darkness (2013) TS MP3 MURDER

Código:

Complete name : Star Trek Into Darkness (2013) TS MP3 MURDER.mkv
Format : Matroska
Format version : Version 4 / Version 2
File size : 998 MiB
Duration : 2h 2mn
Overall bit rate : 1 138 Kbps
Encoded date : UTC 2013-07-11 22:00:34

Video
ID : 1
Format : AVC
Format/Info : Advanced Video Codec
Format profile : Main@L3.0
Format settings, CABAC : Yes
Format settings, ReFrames : 1 frame
Codec ID : V_MPEG4/ISO/AVC
Duration : 2h 2mn
Bit rate : 988 Kbps
Width : 720 pixels
Height : 320 pixels
Display aspect ratio : 2.40:1
Frame rate mode : Constant
Frame rate : 25.000 fps
Color space : YUV
Chroma subsampling : 4:2:0
Bit depth : 8 bits
Scan type : Progressive
Bits/(Pixel*Frame) : 0.171
Stream size : 866 MiB (87%)
Default : Yes
Forced : No

Audio
ID : 2
Format : MPEG Audio
Format version : Version 1
Format profile : Layer 3
Mode : Joint stereo
Mode extension : MS Stereo
Codec ID : A_MPEG/L3
Codec ID/Hint : MP3
Duration : 2h 2mn
Bit rate mode : Constant
Bit rate : 128 Kbps
Channel(s) : 2 channels
Sampling rate : 44.1 KHz
Compression mode : Lossy
Stream size : 112 MiB (11%)
Default : Yes
Forced : No


Código:

http://ul.to/3afxyw88

http://ul.to/i5iz0o5x

http://rapidgator.net/file/998ce074803b3a0d2b12cb3ce317bb59/st.part1.rar.html

http://rapidgator.net/file/1cbda300a2348caa5e71dbf7933eb458/st.part2.rar.html

Valoración: 0 / 5.00 (0 votos)

Todavía no hay comentarios, se el primero!

Escribir un comentario