Siete Psicopatas (2012) [DVDRip Castellano][Comedia][VS]

escrito por Javi Sanchez el 10 julio 2013

Sin comentarios



Cita:

Título original
Seven Psychopaths
Año
2012
Duración
109 min.
País
Reino Unido
Director
Martin McDonagh
Guión
Martin McDonagh
Música
Carter Burwell
Fotografía
Ben Davis
Reparto
Colin Farrell, Sam Rockwell, Christopher Walken, Woody Harrelson, Tom Waits, Abbie Cornish, Olga Kurylenko, Gabourey Sidibe, Harry Dean Stanton, Kevin Corrigan, Zeljko Ivanek, Michael Stuhlbarg, Michael Pitt
Productora
Coproducción Reino Unido-EEUU; Blueprint Pictures / Film4 / HanWay Films
Género
Comedia. Thriller | Comedia negra. Crimen. Mafia. Cine dentro del cine
Web Oficial
http://www.sevenpsychopaths.com/
Sinopsis
Un guionista (Colin Farrell) busca inspiración para su próximo trabajo, en el que dos excéntricos amigos (Sam Rockwell y Christopher Walken) planean secuestrar a un perro. El asunto se complica cuando el animal de compañía de un mafioso desaparece. (FILMAFFINITY)



Spoiler

General
Format : AVI
Format/Info : Audio Video Interleave
File size : 1.20 GiB
Duration : 1h 50mn
Overall bit rate : 1 553 Kbps
Writing application : VirtualDubMod 1.5.10.2 (build 2540/release)
Writing library : VirtualDubMod build 2540/release
Video
ID : 0
Format : MPEG-4 Visual
Format profile : Advanced Simple@L5
Format settings, BVOP : 2
Format settings, QPel : No
Format settings, GMC : No warppoints
Format settings, Matrix : Default (H.263)
Codec ID : XVID
Codec ID/Hint : XviD
Duration : 1h 50mn
Bit rate : 1 095 Kbps
Width : 720 pixels
Height : 304 pixels
Display aspect ratio : 2.40:1
Frame rate : 23.976 fps
Color space : YUV
Chroma subsampling : 4:2:0
Bit depth : 8 bits
Scan type : Progressive
Compression mode : Lossy
Bits/(Pixel*Frame) : 0.209
Stream size : 865 MiB (71%)
Writing library : XviD 64
Audio
ID : 1
Format : AC-3
Format/Info : Audio Coding 3
Mode extension : CM (complete main)
Format settings, Endianness : Big
Codec ID : 2000
Duration : 1h 50mn
Bit rate mode : Constant
Bit rate : 448 Kbps
Channel(s) : 6 channels
Channel positions : Front: L C R, Side: L R, LFE
Sampling rate : 48.0 KHz
Bit depth : 16 bits
Compression mode : Lossy
Stream size : 354 MiB (29%)
Alignment : Split accross interleaves
Interleave, duration : 42 ms (1.00 video frame)
Interleave, preload duration : 500 ms



LINKS INTERCAMBIABLES

*NO CAPTCHAS – Excelente Velocidad*
Código:

http://akafile.com/1qhndu2csyqy
http://akafile.com/ivueq4evjsx2

Código:

http://junocloud.me/91s1ciw0hh3f/7psicop.DVDR.papianton.part1.rar
http://junocloud.me/bxdtd1vh9r6u/7psicop.DVDR.papianton.part2.rar

*DESCARGAS SIN CAPTCHAS*
Código:

http://muchshare.net/2vinzrbe7mqz
http://muchshare.net/hodrh2djpx6q

Código:

http://ul.to/ftt7qb3f
http://ul.to/utltel0j
Descomprimir con Winrar

Valoración: 0 / 5.00 (0 votos)

Todavía no hay comentarios, se el primero!

Escribir un comentario