Sharknado 2013 XViD-LOWRIDER

escrito por Javi Sanchez el 13 julio 2013

Sin comentarios

Sharknado 2013 XViD-LOWRIDER

Código:

Sharknado (2013)
TV Movie – Sci-Fi – 11 July 2013 (USA)

http://www.imdb.com/title/tt2724064/

Plot:
Shark attack thriller follows Fin Shepard and friends as they fight to save the Santa Monica coast from shark-infested tornados that are mutilating the city.

General
Complete name : E:\Movies\Sharknado 2013.avi
Format : AVI
Format/Info : Audio Video Interleave
File size : 700 MiB
Duration : 1h 25mn
Overall bit rate mode : Variable
Overall bit rate : 1 139 Kbps
Writing application : VirtualDubMod 1.5.4.1 (build 2178/release)
Writing library : VirtualDubMod build 2178/release

Video
ID : 0
Format : MPEG-4 Visual
Format profile : Advanced Simple@L5
Format settings, BVOP : 1
Format settings, QPel : No
Format settings, GMC : No warppoints
Format settings, Matrix : Custom
Codec ID : XVID
Codec ID/Hint : XviD
Duration : 1h 25mn
Bit rate : 1 022 Kbps
Width : 608 pixels
Height : 352 pixels
Display aspect ratio : 1.727
Frame rate : 23.976 fps
Color space : YUV
Chroma subsampling : 4:2:0
Bit depth : 8 bits
Scan type : Progressive
Compression mode : Lossy
Bits/(Pixel*Frame) : 0.199
Stream size : 629 MiB (90%)
Writing library : XviD 1.2.1 (UTC 2008-12-04)

Audio
ID : 1
Format : MPEG Audio
Format version : Version 1
Format profile : Layer 3
Mode : Joint stereo
Mode extension : MS Stereo
Codec ID : 55
Codec ID/Hint : MP3
Duration : 1h 25mn
Bit rate mode : Variable
Bit rate : 104 Kbps
Channel(s) : 2 channels
Sampling rate : 48.0 KHz
Compression mode : Lossy
Stream size : 63.8 MiB (9%)
Alignment : Aligned on interleaves
Interleave, duration : 24 ms (0.58 video frame)
Interleave, preload duration : 499 ms

Thanks to jpockets420- original uploader

Download:
Código:

http://uploaded.net/file/pi5ex6ic/Sharknado%202013%20XViD-LOWRIDER.avi
or
http://uploaded.net/file/6dhjtpon/Sharknado%202013%20XViD-LOWRIDER.rar

Valoración: 0 / 5.00 (0 votos)

Todavía no hay comentarios, se el primero!

Escribir un comentario