Rosita Fresita: Diversion Bajo el Sol (2014) [DVDRip/Español Latino] [Animación]

escrito por Javi Sanchez el 22 junio 2014

Sin comentarios

Sinopsis:
En esta ocasión Frutilla y sus amigas protagonizan tres historias que tienen mucho que ver entre ellas y que tienen un denominador común: los animales de compañía, a los que nuestra protagonista deberá encontrar.
El grupo de Frutilla va a vivir nuevas aventuras en busca de mascotas perdidas. Los que tenemos una sabemos lo mal que se pasa cuando se pierden, y por eso las amigas van a buscarlas.
En la película vivirán todo tipo de aventuras, pues como es normal encontrar a los animales extraviados no va a ser fácil, puesto que de serlo la aventura sería de lo más aburrida y no gustaría a nadie.
En la búsqueda las amigas se tendrán que enfrentar a los miedos normales de una chica de su edad, pero que al final superan. Y es que la película es eso, una historia de superación que muestra como uniéndonos podemos superar cualquier reto que se nos ponga por delante.

Ficha Técnica:
Titulo Original: Strawberry Shortcake Fun Under The Sun
Otros Títulos: Rosita fresita: Diversion bajo el sol
País: USA
Año: 2014
Género: Animacion. Infantil

Trailer:

Datos Técnicos:
DVDRip | AVI | 608×336 | 700 MB | Español Latino

Código:
General
Complete name                            : Rosita fresita: Diversion bajo el sol.DVDRip.Latino-By tomas01.avi
Format                                   : AVI
Format/Info                              : Audio Video Interleave
File size                                : 700 MiB
Duration                                 : 1h 6mn
Overall bit rate mode                    : Variable
Overall bit rate                         : 1 475 Kbps
Writing application                      : VirtualDubMod 1.5.4.1 (build 2178/release)
Writing library                          : VirtualDubMod build 2178/release

Video
ID                                       : 0
Format                                   : MPEG-4 Visual
Format profile                           : Advanced Simple@L5
Format settings, BVOP                    : 1
Format settings, QPel                    : No
Format settings, GMC                     : No warppoints
Format settings, Matrix                  : Custom
Codec ID                                 : XVID
Codec ID/Hint                            : XviD
Duration                                 : 1h 6mn
Bit rate                                 : 1 349 Kbps
Width                                    : 608 pixels
Height                                   : 336 pixels
Display aspect ratio                     : 16:9
Frame rate                               : 23.976 fps
Color space                              : YUV
Chroma subsampling                       : 4:2:0
Bit depth                                : 8 bits
Scan type                                : Progressive
Compression mode                         : Lossy
Bits/(Pixel*Frame)                       : 0.275
Stream size                              : 640 MiB (91%)
Writing library                          : XviD 64

Audio
ID                                       : 1
Format                                   : MPEG Audio
Format version                           : Version 1
Format profile                           : Layer 3
Mode                                     : Joint stereo
Mode extension                           : MS Stereo
Codec ID                                 : 55
Codec ID/Hint                            : MP3
Duration                                 : 1h 6mn
Bit rate mode                            : Variable
Bit rate                                 : 113 Kbps
Nominal bit rate                         : 128 Kbps
Channel(s)                               : 2 channels
Sampling rate                            : 48.0 KHz
Compression mode                         : Lossy
Stream size                              : 53.9 MiB (8%)
Alignment                                : Aligned on interleaves
Interleave, duration                     : 24 ms (0.58 video frame)
Interleave, preload duration             : 162 ms
Writing library                          : LAME3.98r
Encoding settings                        : -m j -V 4 -q 2 -lowpass 17 --abr 128
Language                                 : Espanol

Capturas:

Contraseña / Password:

Código:
tomas01

Descargar Gratis:

FreakShare | Uploaded | FireDriver

Todavía no hay comentarios, se el primero!

Escribir un comentario