R3sacón (Resacón Parte III) 2013, TS-Scr HQ-Castellano, Comedia, RG,

escrito por Javi Sanchez el 4 junio 2013

Sin comentarios



Sinopsis:

Esta vez no hay boda. No hay despedida de soltero. ¿Qué podría salir mal, verdad? Pero cuando el “Wolfpack” sale a la carretera, todas las apuestas están en su contra.

Información:

Calidad: TS-Screener HQ
Audio: Castellano MIC (FILTRADO)
Tamaño: 1,35 GB

Título: R3sacón
Título alternativo: Resacón 3
Título original: The Hangover: Part III
Año: 2013
Duración: 110 minutos
País: EE.UU.
Género: Comedia
Estudio: Warner Bros. Pictures
Calificación: +16
Fecha de estreno
España: 31 de Mayo 2013
Estados Unidos: 24 de Mayo 2013
Reino Unido: 24 de Mayo 2013
MediaInfo:

Format : AVI
Format/Info : Audio Video Interleave
File size : 1.36 GiB
Duration : 1h 34mn
Overall bit rate : 2 056 Kbps
Movie name : Malchishnik.Chast.III.2013.D.TS.IRONCLUB
Director : IRONCLUB
Genre : Comedy
Writing application : VirtualDubMod 1.5.10.2 (build 2540/release)
Writing library : VirtualDubMod build 2540/release
Original source form/Name : Movie
Copyright : http://ironclub.tv/
Video
ID : 0
Format : MPEG-4 Visual
Format profile : Advanced Simple@L5
Format settings, BVOP : 2
Format settings, QPel : No
Format settings, GMC : No warppoints
Format settings, Matrix : Custom
Codec ID : XVID
Codec ID/Hint : XviD
Duration : 1h 34mn
Bit rate : 1 918 Kbps
Width : 720 pixels
Height : 304 pixels
Display aspect ratio : 2.35:1
Frame rate : 25.857 fps
Color space : YUV
Chroma subsampling : 4:2:0
Bit depth : 8 bits
Scan type : Progressive
Compression mode : Lossy
Bits/(Pixel*Frame) : 0.339
Stream size : 1.27 GiB (93%)
Writing library : XviD 64
Audio
ID : 1
Format : MPEG Audio
Format version : Version 1
Format profile : Layer 3
Mode : Joint stereo
Mode extension : MS Stereo
Codec ID : 55
Codec ID/Hint : MP3
Duration : 1h 34mn
Bit rate mode : Constant
Bit rate : 128 Kbps
Channel(s) : 2 channels
Sampling rate : 44.1 KHz
Compression mode : Lossy
Stream size : 86.9 MiB (6%)
Alignment : Split accross interleaves
Interleave, duration : 39 ms (1.00 video frame)
Interleave, preload duration : 500 ms


DESCARGAR de Rapidgator:
Tan solo 2 links!!:
http://q.gs/4LEU2
http://q.gs/4LEU3
Links 550Mb:
http://q.gs/4LEUa
http://q.gs/4LEUb
http://q.gs/4LEUc
Mira aqui, si los links anteriores estan rotos:
http://q.gs/4LEVF

Capturas reales:

Todavía no hay comentarios, se el primero!

Escribir un comentario