Parker [BDrip 720][Ac3 (es-ES);DTS (en-US)][Accion][2013]

escrito por Javi Sanchez el 9 julio 2013

Sin comentarios



Parker

Cita:

Título original Parker
Año 2013
Duración 118 min.
País [Estados Unidos] Estados Unidos
Director Taylor Hackford
Guión John J. McLaughlin (Libros: Donald E. Westlake)
Música David Buckley
Fotografía J. Michael Muro
Reparto Jason Statham, Jennifer Lopez, Nick Nolte, Michael Chiklis, Clifton Collins Jr., Daniel Bernhardt
Productora Incentive Filmed Entertainment
Género Acción. Thriller | Crimen

SINOPSIS: Parker (Jason Statham) es un ladrón con un código ético muy particular: sólo roba a los ricos. Tras una operación, es traicionado por su equipo y dado por muerto. Entonces decide adoptar una nueva identidad; lo que se propone, con la ayuda de una hermosa mujer (Jennifer Lopez), es apoderarse del botín y que sus antiguos socios lamenten haberse cruzado en su camino. (FILMAFFINITY)

Spoiler

Format : Matroska
Format version : Version 4 / Version 2
File size : 5.83 GiB
Duration : 1h 58mn
Overall bit rate : 7 036 Kbps
Movie name : Parker 720 Baalberith
Encoded date : UTC 2013-07-09 15:09:13
Writing application : mkvmerge v6.3.0 (‘You can’t stop me!’) built on Jun 28 2013 20:09:41
Writing library : libebml v1.3.0 + libmatroska v1.4.0
Video
ID : 1
Format : AVC
Format/Info : Advanced Video Codec
Format profile : High@L4.1
Format settings, CABAC : Yes
Format settings, ReFrames : 5 frames
Codec ID : V_MPEG4/ISO/AVC
Duration : 1h 58mn
Bit rate : 5 079 Kbps
Width : 1 280 pixels
Height : 536 pixels
Display aspect ratio : 2.40:1
Frame rate : 23.976 fps
Color space : YUV
Chroma subsampling : 4:2:0
Bit depth : 8 bits
Scan type : Progressive
Bits/(Pixel*Frame) : 0.309
Stream size : 4.09 GiB (70%)
Title : Parker 720 Baalberith
Writing library : x264 core 130 r2273 b3065e6
Encoding settings : cabac=1 / ref=5 / deblock=1:0:0 / analyse=0x3:0x133 / me=umh / subme=7 / psy=1 / psy_rd=1.00:0.00 / mixed_ref=1 / me_range=16 / chroma_me=1 / trellis=1 / 8x8dct=1 / cqm=0 / deadzone=21,11 / fast_pskip=0 / chroma_qp_offset=-2 / threads=12 / lookahead_threads=2 / sliced_threads=0 / nr=0 / decimate=1 / interlaced=0 / bluray_compat=0 / constrained_intra=0 / bframes=3 / b_pyramid=2 / b_adapt=1 / b_bias=0 / direct=1 / weightb=1 / open_gop=0 / weightp=2 / keyint=250 / keyint_min=23 / scenecut=40 / intra_refresh=0 / rc_lookahead=40 / rc=2pass / mbtree=1 / bitrate=5079 / ratetol=1.0 / qcomp=0.60 / qpmin=0 / qpmax=69 / qpstep=4 / cplxblur=20.0 / qblur=0.5 / ip_ratio=1.40 / aq=1:1.00
Language : Spanish
Default : Yes
Forced : No
Audio #1
ID : 2
Format : AC-3
Format/Info : Audio Coding 3
Mode extension : CM (complete main)
Format settings, Endianness : Big
Codec ID : A_AC3
Duration : 1h 58mn
Bit rate mode : Constant
Bit rate : 448 Kbps
Channel(s) : 6 channels
Channel positions : Front: L C R, Side: L R, LFE
Sampling rate : 48.0 KHz
Bit depth : 16 bits
Compression mode : Lossy
Stream size : 380 MiB (6%)
Title : Ac3 5.1@448 kbps
Language : Spanish
Default : Yes
Forced : No
Audio #2
ID : 3
Format : DTS
Format/Info : Digital Theater Systems
Codec ID : A_DTS
Duration : 1h 58mn
Bit rate mode : Constant
Bit rate : 1 510 Kbps
Channel(s) : 6 channels
Channel positions : Front: L C R, Side: L R, LFE
Sampling rate : 48.0 KHz
Bit depth : 24 bits
Compression mode : Lossy
Stream size : 1.25 GiB (21%)
Title : DTS 5.1@1510 kbps
Language : English
Default : No
Forced : No
Text #1
ID : 4
Format : UTF-8
Codec ID : S_TEXT/UTF8
Codec ID/Info : UTF-8 Plain Text
Title : Forzados
Language : Spanish
Default : Yes
Forced : No
Text #2
ID : 5
Format : UTF-8
Codec ID : S_TEXT/UTF8
Codec ID/Info : UTF-8 Plain Text
Title : Spanish
Language : Spanish
Default : No
Forced : No
Text #3
ID : 6
Format : UTF-8
Codec ID : S_TEXT/UTF8
Codec ID/Info : UTF-8 Plain Text
Title : English
Language : English
Default : No
Forced : No
Menu
00:00:00.000 : en:00:00:00.000
00:06:14.708 : en:00:06:14.708
00:14:00.923 : en:00:14:00.923
00:19:29.585 : en:00:19:29.585
00:26:25.000 : en:00:26:25.000
00:31:46.488 : en:00:31:46.488
00:38:26.804 : en:00:38:26.804
00:42:27.920 : en:00:42:27.920
00:49:46.275 : en:00:49:46.275
00:55:07.638 : en:00:55:07.638
01:01:11.376 : en:01:01:11.376
01:06:21.561 : en:01:06:21.561
01:11:51.349 : en:01:11:51.349
01:22:34.533 : en:01:22:34.533
01:30:46.274 : en:01:30:46.274
01:38:12.220 : en:01:38:12.220

Tamaño:5,83Gb
Formato / Contenedor: Matroska
Video Codec: AVC
Profile: High@L4.1 Marcos:5
Resolución: 1280×536
Audio 1: Spanish Ac3 448 Kbps 6 channels
Audio 2: DTS 1510 Kbps 6 channels
Subtitulos:Forzados,Spanish,English.
Servidor(es) : Rapidgator,DDLStorage,Uploaded.net,Bitshare,Putloc ker (98%-2)…INTERCAMBIABLES.
Formato Compresión : Comprimido y partido en 13 partes con winrar
Archivos recuperación : Contiene 3 archivos de recuperación rar (Se abren con winrar)
Verificación : 1 archivo verificador
Sample:SI Contiene sample de aprx.100-150mb para ver calidad audio/video/subs,sincronizacion etc.
Capitulos:SI contiene capitulos.
Recuperacion:SI, cada archivo consta de un 5% de recuperacion.
Descargar Parker 720p
INFORMACION: Montaje,sincronizacion-audio-subtitulos: Baalberith
Código:

http://2a642508.miniurls.co
Código:

http://adf.ly/RmeM3

Un saludo.

Valoración: 0 / 5.00 (0 votos)

Todavía no hay comentarios, se el primero!

Escribir un comentario