Parker (2013)[Accion, Thriller][Bdrip.m-720p.Dual.AC3.subs forzados]

escrito por Javi Sanchez el 9 julio 2013

Sin comentarios


Título original Parker
Año 2013
Duración 118 min.
País
Director Taylor Hackford
Guión John J. McLaughlin (Libros: Donald E. Westlake)
Música David Buckley
Fotografía J. Michael Muro
Reparto Jason Statham, Jennifer Lopez, Nick Nolte, Michael Chiklis, Clifton Collins Jr., Daniel Bernhardt
Productora Incentive Filmed Entertainment
Género Acción. Thriller | Crimen
Sinopsis
Parker (Jason Statham) es un ladrón con un código ético muy particular: sólo roba a los ricos. Tras una operación, es traicionado por su equipo y dado por muerto. Entonces decide adoptar una nueva identidad; lo que se propone, con la ayuda de una hermosa mujer (Jennifer Lopez), es apoderarse del botín y que sus antiguos socios lamenten haberse cruzado en su camino. (FILMAFFINITY)

Mediainfo:
Spoiler

Complete name : Parker.Bdrip.m-720p.Dual.x.lagartish.mkv
Format : Matroska
File size : 2.97 GiB
Duration : 1h 58mn
Overall bit rate : 3 585 Kbps
Movie name : Parker x lagartish
Encoded date : UTC 2013-07-08 22:03:02
Writing application : mkvmerge v4.8.0 (‘I Got The…’) creado el May 23 2011 22:30:05
Writing library : libebml v1.2.0 + libmatroska v1.1.0
Video
ID : 1
Format : AVC
Format/Info : Advanced Video Codec
Format profile : High@L4.1
Format settings, CABAC : Yes
Format settings, ReFrames : 8 frames
Codec ID : V_MPEG4/ISO/AVC
Duration : 1h 58mn
Bit rate : 2 617 Kbps
Width : 1 280 pixels
Height : 534 pixels
Display aspect ratio : 2.35:1
Frame rate : 23.976 fps
Color space : YUV
Chroma subsampling : 4:2:0
Bit depth : 8 bits
Scan type : Progressive
Bits/(Pixel*Frame) : 0.160
Stream size : 2.17 GiB (73%)
Encoding settings : cabac=1 / ref=8 / deblock=1:-3:-3 / analyse=0x3:0x133 / me=umh / subme=9 / psy=1 / psy_rd=1.10:0.00 / mixed_ref=1 / me_range=16 / chroma_me=1 / trellis=2 / 8x8dct=1 / cqm=0 / deadzone=21,11 / fast_pskip=1 / chroma_qp_offset=-2 / threads=12 / lookahead_threads=2 / sliced_threads=0 / nr=0 / decimate=1 / interlaced=0 / bluray_compat=0 / constrained_intra=0 / bframes=7 / b_pyramid=2 / b_adapt=2 / b_bias=0 / direct=3 / weightb=1 / open_gop=0 / weightp=2 / keyint=250 / keyint_min=23 / scenecut=40 / intra_refresh=0 / rc=crf / mbtree=0 / crf=19.0 / qcomp=0.60 / qpmin=0 / qpmax=69 / qpstep=4 / ip_ratio=1.40 / pb_ratio=1.30 / aq=1:0.60
Language : English
Audio #1
ID : 2
Format : AC-3
Format/Info : Audio Coding 3
Mode extension : CM (complete main)
Codec ID : A_AC3
Duration : 1h 58mn
Bit rate mode : Constant
Bit rate : 448 Kbps
Channel(s) : 6 channels
Channel positions : Front: L C R, Side: L R, LFE
Sampling rate : 48.0 KHz
Bit depth : 16 bits
Compression mode : Lossy
Stream size : 380 MiB (12%)
Language : Spanish
Audio #2
ID : 3
Format : AC-3
Format/Info : Audio Coding 3
Mode extension : CM (complete main)
Codec ID : A_AC3
Duration : 1h 58mn
Bit rate mode : Constant
Bit rate : 448 Kbps
Channel(s) : 6 channels
Channel positions : Front: L C R, Side: L R, LFE
Sampling rate : 48.0 KHz
Bit depth : 16 bits
Compression mode : Lossy
Stream size : 380 MiB (12%)
Language : English
Text #1
ID : 4
Format : UTF-8
Codec ID : S_TEXT/UTF8
Codec ID/Info : UTF-8 Plain Text
Title : Forzados
Language : Spanish
Text #2
ID : 5
Format : UTF-8
Codec ID : S_TEXT/UTF8
Codec ID/Info : UTF-8 Plain Text
Language : Spanish
Text #3
ID : 6
Format : UTF-8
Codec ID : S_TEXT/UTF8
Codec ID/Info : UTF-8 Plain Text
Language : English
Menu
00:00:00.000 : en:00:00:00.000
00:06:14.708 : en:00:06:14.708
00:14:00.923 : en:00:14:00.923
00:19:29.585 : en:00:19:29.585
00:26:25.000 : en:00:26:25.000
00:31:46.488 : en:00:31:46.488
00:38:26.804 : en:00:38:26.804
00:42:27.920 : en:00:42:27.920
00:49:46.275 : en:00:49:46.275
00:55:07.638 : en:00:55:07.638
01:01:11.376 : en:01:01:11.376
01:06:21.561 : en:01:06:21.561
01:11:51.349 : en:01:11:51.349
01:22:34.533 : en:01:22:34.533
01:30:46.274 : en:01:30:46.274
01:38:12.220 : en:01:38:12.220

Fuente de vídeo: FullBluray
Contenedor: mkv
Codificacion: crf
Tamaño: 2.97 Gb
Tasa de Bits total 3585 kbps
Resolucion: 1280×534
Audio 1: AC3 448 kbps castellano
Audio 2: AC3 448 kbps ingles
Links: 9 de 299 Mb y 1 de 266 Mb
Archivos de recuperacion: 3 rev
Subs: Español e ingles completos y forzados español
Archivos intercambiables
Descarga por Putlocker, Uploaded.to, Freakshare, Rapidgator, Bitshare, Ddlstorage
http://d1a09241.linkbucks.com
http://linksave.in/91326048651db499202f5e

Valoración: 0 / 5.00 (0 votos)

Todavía no hay comentarios, se el primero!

Escribir un comentario