Monsters University 2013 HDTS XviD AC3 MURDER

escrito por Javi Sanchez el 14 julio 2013

Sin comentarios

Monsters University 2013 HDTS XviD AC3 MURDER

Código:

http://www.imdb.com/title/tt1453405/

General
Complete name : Monsters University 2013 HDTS XviD AC3 MURDER.mkv
Format : Matroska
Format version : Version 2
File size : 1.36 GiB
Duration : 1h 34mn
Overall bit rate : 2 055 Kbps
Encoded date : UTC 2013-07-13 21:21:44
Video
ID : 1
Format : MPEG-4 Visual
Format profile : Advanced Simple@L5
Format settings, BVOP : Yes
Format settings, QPel : No
Format settings, GMC : No warppoints
Format settings, Matrix : Default (H.263)
Codec ID : V_MS/VFW/FOURCC / XVID
Codec ID/Hint : XviD
Duration : 1h 34mn
Bit rate : 1 886 Kbps
Width : 720 pixels
Height : 384 pixels
Display aspect ratio : 2.2:1
Frame rate mode : Constant
Frame rate : 25.000 fps
Color space : YUV
Chroma subsampling : 4:2:0
Bit depth : 8 bits
Scan type : Progressive
Compression mode : Lossy
Bits/(Pixel*Frame) : 0.273
Stream size : 1.25 GiB (92%)
Writing library : XviD 64
Default : Yes
Forced : No

Audio
ID : 2
Format : AC-3
Format/Info : Audio Coding 3
Mode extension : CM (complete main)
Format settings, Endianness : Big
Codec ID : A_AC3
Duration : 1h 34mn
Bit rate mode : Constant
Bit rate : 128 Kbps
Channel(s) : 2 channels
Channel positions : Front: L R
Sampling rate : 44.1 KHz
Bit depth : 16 bits
Compression mode : Lossy
Stream size : 86.9 MiB (6%)
Default : Yes
Forced : No
Screens:



Download:
Código:

http://uploaded.net/file/ftiy7eji/Monsters%20University%202013%20HDTS%20XviD%20AC3%20MURDER.mkv
or

http://uploaded.net/file/n8u3we0l/Monsters%20University%202013%20HDTS%20XviD%20AC3%20MURDER.part1.rar

http://uploaded.net/file/fmxsnhgt/Monsters%20University%202013%20HDTS%20XviD%20AC3%20MURDER.part2.rar

Valoración: 0 / 5.00 (0 votos)

Todavía no hay comentarios, se el primero!

Escribir un comentario