Monster High Scaris [DVD-Rip/Cast][Animación][2013][DD][UL]

escrito por Javi Sanchez el 1 mayo 2013

Sin comentarios




Título Original: Monster High – Scaris: City of Frights
Director: Steve Ball, Andrew Duncan
Duración: 00:58:00
Estreno o Año: 2013
Género: Animación | Infantil
País: Estados Unidos
Distribuidora/Productora: Mattel Entertainment / Nerd Corps Entertainment
Calificación: Apta para todos los públicos
Reparto: (Animación)
Sinopsis: Las Monstruitas de Monster High están obsesionadas por ir a Scaris, La Ciudad de los Sustos, para una competición internacional de Moda donde el ganador se convertirá en el aprendiz de la mundialmente famosa diseñadora Madame Ghostier.


Calidad: DVD-Rip
Idioma: Castellano Ac3
Tamaño: AVI 761 mb
Servidor: Uploaded.to

Spoiler

General
Complete name : M.o.n.s.t.e.r.H.i.g.h.S.c.a.r.i.s.DVD-Rip[jc].avi
Format : AVI
Format/Info : Audio Video Interleave
File size : 761 MiB
Duration : 58mn 0s
Overall bit rate : 1 833 Kbps
Writing application : Lavf52.78.4
Video
ID : 0
Format : MPEG-4 Visual
Format profile : Advanced Simple@L5
Format settings, BVOP : 2
Format settings, QPel : No
Format settings, GMC : No warppoints
Format settings, Matrix : Default (H.263)
Muxing mode : Packed bitstream
Codec ID : DX50
Codec ID/Hint : DivX 5
Duration : 58mn 0s
Bit rate : 1 438 Kbps
Width : 720 pixels
Height : 402 pixels
Display aspect ratio : 16:9
Frame rate : 25.000 fps
Color space : YUV
Chroma subsampling : 4:2:0
Bit depth : 8 bits
Scan type : Progressive
Compression mode : Lossy
Bits/(Pixel*Frame) : 0.199
Stream size : 597 MiB (78%)
Writing library : XviD 1.2.1 (UTC 2008-12-04)
Audio
ID : 1
Format : AC-3
Format/Info : Audio Coding 3
Mode extension : CM (complete main)
Format settings, Endianness : Big
Codec ID : 2000
Duration : 58mn 0s
Bit rate mode : Constant
Bit rate : 384 Kbps
Channel(s) : 6 channels
Channel positions : Front: L C R, Side: L R, LFE
Sampling rate : 48.0 KHz
Bit depth : 16 bits
Compression mode : Lossy
Stream size : 159 MiB (21%)
Alignment : Aligned on interleaves
Interleave, duration : 32 ms (0.80 video frame)
Interleave, preload duration : 32 ms


http://www.dailymotion.com/swf/video/xxwyhr

Descargar 1 link desde: MediafirePutlockerRapidshareHostgator



Download Monster High Scaris: Un Viaje Monstruosamente Fashion (DVD-Rip)

Todavía no hay comentarios, se el primero!

Escribir un comentario