Mision Imposible 4 [MicroHD] [1080p] [AC3 5.1-Castellano+Subs] [Accion] [2011]

escrito por Javi Sanchez el 9 julio 2013

Sin comentarios


Mission Impossible: Ghost Protocol (Mission Impossible IV)
Año
2011
Duración
132 min.
País
[Estados Unidos] Estados Unidos
Director
Brad Bird
Guión
Christopher McQuarrie, Josh Applebaum, Andre Nemec (Personajes: Bruce Geller)
Música
Michael Giacchino
Fotografía
Robert Elswit
Reparto
Tom Cruise, Jeremy Renner, Simon Pegg, Paula Patton, Josh Holloway, Michael Nyqvist, Ving Rhames, Tom Wilkinson, Léa Seydoux, Vladimir Mashkov, Samuli Edelmann, Anil Kapoor, Michelle Monaghan
Productora
Paramount Pictures
Género
Acción | Secuela. Espionaje
Web Oficial
Mission: Impossible – Ghost Protocol on Blu-ray™ & DVD: Own it Now
Sinopsis
Cuarta entrega de la saga cinematográfica Misión imposible. El agente Ethan Hunt, acusado de un atentado terrorista con bombas contra el Kremlin, es desautorizado junto con el resto de la organización al iniciar el Presidente el “Protocolo Fantasma”. Abandonado a su suerte y sin recursos, Ethan tiene que encontrar el modo de rehabilitar el buen nombre de su agencia e impedir un nuevo ataque. Para complicar aún más las cosas, Ethan se ve obligado a embarcarse en esta misión con un equipo de compañeros del IMF fugitivos, cuyos motivos personales no conoce del todo. (FILMAFFINITY)
Mediainfo:
Código:

General
Format : Matroska
Format version : Version 4 / Version 2
File size : 7.36 GiB
Duration : 2h 12mn
Overall bit rate : 8 022 Kbps
Movie name : Mision Imposible 4
Encoded date : UTC 2013-06-10 07:36:04
Writing application : mkvmerge v6.2.0 (‘Promised Land’) built on Apr 28 2013 12:22:01
Writing library : libebml v1.3.0 + libmatroska v1.4.0

Video
ID : 1
Format : AVC
Format/Info : Advanced Video Codec
Format profile : High@L4.1
Format settings, CABAC : Yes
Format settings, ReFrames : 4 frames
Codec ID : V_MPEG4/ISO/AVC
Duration : 2h 12mn
Bit rate : 7 191 Kbps
Width : 1 920 pixels
Height : 800 pixels
Display aspect ratio : 2.40:1
Frame rate mode : Constant
Frame rate : 23.976 fps
Color space : YUV
Chroma subsampling : 4:2:0
Bit depth : 8 bits
Scan type : Progressive
Bits/(Pixel*Frame) : 0.198
Stream size : 6.62 GiB (90%)
Title : Mision Imposible 4
Writing library : x264 core 104 r1675 2484aa0
Encoding settings : cabac=1 / ref=4 / deblock=1:0:0 / analyse=0x3:0x133 / me=umh / subme=10 / psy=1 / psy_rd=1.00:0.00 / mixed_ref=1 / me_range=24 / chroma_me=1 / trellis=2 / 8x8dct=1 / cqm=0 / deadzone=21,11 / fast_pskip=1 / chroma_qp_offset=-2 / threads=6 / sliced_threads=0 / nr=0 / decimate=1 / interlaced=0 / constrained_intra=0 / bframes=8 / b_pyramid=2 / b_adapt=2 / b_bias=0 / direct=3 / weightb=1 / open_gop=0 / weightp=2 / keyint=250 / keyint_min=23 / scenecut=40 / intra_refresh=0 / rc_lookahead=60 / rc=2pass / mbtree=1 / bitrate=7280 / ratetol=1.0 / qcomp=0.60 / qpmin=10 / qpmax=51 / qpstep=4 / cplxblur=20.0 / qblur=0.5 / ip_ratio=1.40 / aq=1:1.00
Default : Yes
Forced : No

Audio
ID : 2
Format : AC-3
Format/Info : Audio Coding 3
Mode extension : CM (complete main)
Format settings, Endianness : Big
Codec ID : A_AC3
Duration : 2h 12mn
Bit rate mode : Constant
Bit rate : 640 Kbps
Channel(s) : 6 channels
Channel positions : Front: L C R, Side: L R, LFE
Sampling rate : 48.0 KHz
Bit depth : 16 bits
Compression mode : Lossy
Stream size : 609 MiB (8%)
Title : Castellano AC3 5.1
Language : Spanish
Default : Yes
Forced : No

Text #1
ID : 3
Format : UTF-8
Codec ID : S_TEXT/UTF8
Codec ID/Info : UTF-8 Plain Text
Title : Sub.forz.es
Default : No
Forced : No

Text #2
ID : 4
Format : VobSub
Muxing mode : zlib
Codec ID : S_VOBSUB
Codec ID/Info : The same subtitle format used on DVDs
Title : Subtitulos Castellano forzados
Language : Spanish
Default : Yes
Forced : Yes

Text #3
ID : 5
Format : VobSub
Muxing mode : zlib
Codec ID : S_VOBSUB
Codec ID/Info : The same subtitle format used on DVDs
Title : Subtitulos Castellano
Language : Spanish
Default : No
Forced : No
Capturas:



Descarga(Uploaded.to + Bitshare.com):
Uploaded.to:
Código:

http://uploaded.net/file/b6xrhtc1/Mission%20Imposible%204%20Microhd%201080p.mkv.7z.001

http://uploaded.net/file/hb3olzdg/Mission%20Imposible%204%20Microhd%201080p.mkv.7z.002

http://uploaded.net/file/3p9ldtkv/Mission%20Imposible%204%20Microhd%201080p.mkv.7z.003

http://uploaded.net/file/ksrm368l/Mission%20Imposible%204%20Microhd%201080p.mkv.7z.004

http://uploaded.net/file/mu4pg4wl/Mission%20Imposible%204%20Microhd%201080p.mkv.7z.005

http://uploaded.net/file/ssqtexm1/Mission%20Imposible%204%20Microhd%201080p.mkv.7z.006

http://uploaded.net/file/43xofuns/Mission%20Imposible%204%20Microhd%201080p.mkv.7z.007

http://uploaded.net/file/t633x3he/Mission%20Imposible%204%20Microhd%201080p.mkv.7z.008

http://uploaded.net/file/5h4usep6/Mission%20Imposible%204%20Microhd%201080p.mkv.7z.009
Bitshare.com:
Código:

http://bitshare.com/files/7hjw1h2r/Mission-Imposible-4-Microhd-1080p.mkv.7z.001.html

http://bitshare.com/files/s08enrm1/Mission-Imposible-4-Microhd-1080p.mkv.7z.002.html

http://bitshare.com/files/iw9op1b0/Mission-Imposible-4-Microhd-1080p.mkv.7z.003.html

http://bitshare.com/files/3ztz5pjs/Mission-Imposible-4-Microhd-1080p.mkv.7z.004.html

http://bitshare.com/files/d47azgi0/Mission-Imposible-4-Microhd-1080p.mkv.7z.005.html

http://bitshare.com/files/w9li796t/Mission-Imposible-4-Microhd-1080p.mkv.7z.006.html

http://bitshare.com/files/2yqw6jmw/Mission-Imposible-4-Microhd-1080p.mkv.7z.007.html

http://bitshare.com/files/wm2e1vjm/Mission-Imposible-4-Microhd-1080p.mkv.7z.008.html

http://bitshare.com/files/qx794vl9/Mission-Imposible-4-Microhd-1080p.mkv.7z.009.html

Valoración: 0 / 5.00 (0 votos)

Todavía no hay comentarios, se el primero!

Escribir un comentario