Man of Tai Chi 2013 R6 AVC MP3-bRaVo

escrito por Javi Sanchez el 12 julio 2013

Sin comentarios

Man of Tai Chi 2013 R6 AVC MP3-bRaVo

Código:

Language: Cantonese, English, Mandarin
Sub: HC Chinese & English

Format : AVI
Format/Info : Audio Video Interleave
File size : 742 MiB
Duration : 1h 36mn
Overall bit rate mode : Variable
Overall bit rate : 1 073 Kbps
Writing application : Lavf51.12.1

Video
ID : 0
Format : AVC
Format/Info : Advanced Video Codec
Format profile : Baseline@L3.0
Format settings, CABAC : No
Format settings, ReFrames : 1 frame
Format settings, GOP : M=1, N=12
Codec ID : H264
Duration : 1h 36mn
Bit rate mode : Variable
Bit rate : 741 Kbps
Maximum bit rate : 1 111 Kbps
Width : 720 pixels
Height : 408 pixels
Display aspect ratio : 16:9
Frame rate : 23.976 fps
Original frame rate : 24.000 fps
Color space : YUV
Chroma subsampling : 4:2:0
Bit depth : 8 bits
Scan type : Progressive
Bits/(Pixel*Frame) : 0.105
Stream size : 512 MiB (69%)

Audio
ID : 1
Format : MPEG Audio
Format version : Version 1
Format profile : Layer 3
Mode : Joint stereo
Mode extension : MS Stereo
Codec ID : 55
Codec ID/Hint : MP3
Duration : 1h 36mn
Bit rate mode : Constant
Bit rate : 320 Kbps
Channel(s) : 2 channels
Sampling rate : 44.1 KHz
Compression mode : Lossy
Stream size : 221 MiB (30%)
Alignment : Aligned on interleaves
Interleave, duration : 26 ms (0.63 video frame)
Interleave, preload duration : 26 ms
Writing library : LAME3.97

IMDB: http://www.imdb.com/title/tt2016940/


Código:

http://ul.to/aini1ywd

http://ul.to/js667bak

http://ul.to/j9bm2hw1

http://rapidgator.net/file/8b151fdf20e8702eaf6888c7ac9f3a19/ma.part3.rar.html

http://rapidgator.net/file/3237ad3a95bae60b201ddaabfc24044d/ma.part2.rar.html

http://rapidgator.net/file/6e31ab51152181b7c814097627a97f7b/ma.part1.rar.html

Valoración: 0 / 5.00 (0 votos)

Todavía no hay comentarios, se el primero!

Escribir un comentario