Man of Steel 2013 TS LINE X264 MP3 AVi MURDER

escrito por Javi Sanchez el 14 julio 2013

Sin comentarios

Man of Steel 2013 TS LINE X264 MP3 AVi MURDER

Código:

General
Complete name : Man of Steel 2013 TS LINE X264 MP3 AVi MURDER.avi
Format : AVI
Format/Info : Audio Video Interleave
File size : 1.14 GiB
Duration : 2h 22mn
Overall bit rate : 1 144 Kbps

Video
ID : 1
Format : AVC
Format/Info : Advanced Video Codec
Format profile : Main@L3.0
Format settings, CABAC : Yes
Format settings, ReFrames : 1 frame
Codec ID : X264
Codec ID/Info : XiWave GNU GPL x264 MPEG-4
Duration : 2h 22mn
Bit rate : 1 002 Kbps
Width : 896 pixels
Height : 384 pixels
Display aspect ratio : 2.35:1
Frame rate : 29.970 fps
Color space : YUV
Chroma subsampling : 4:2:0
Bit depth : 8 bits
Scan type : Progressive
Bits/(Pixel*Frame) : 0.097
Stream size : 1 023 MiB (88%)

Audio
ID : 0
Format : MPEG Audio
Format version : Version 2
Format profile : Layer 3
Mode : Joint stereo
Mode extension : MS Stereo
Codec ID : 55
Codec ID/Hint : MP3
Duration : 2h 22mn
Bit rate mode : Constant
Bit rate : 128 Kbps
Channel(s) : 2 channels
Sampling rate : 24.0 KHz
Compression mode : Lossy
Stream size : 131 MiB (11%)
Alignment : Split accross interleaves
Interleave, duration : 33 ms (1.00 video frame)
Writing library : LAME3.98.2
Screens:



Download:
Código:

http://uploaded.net/file/b2iyvfzz/Man%20of%20Steel%202013%20TS%20LINE%20X264%20MP3%20AVi%20MURDER.avi
or

http://uploaded.net/file/1g37hn1u/Man%20of%20Steel%202013%20TS%20LINE%20X264%20MP3%20AVi%20MURDER.part1.rar

http://uploaded.net/file/4itlozse/Man%20of%20Steel%202013%20TS%20LINE%20X264%20MP3%20AVi%20MURDER.part2.rar

Valoración: 0 / 5.00 (0 votos)

Todavía no hay comentarios, se el primero!

Escribir un comentario