Man of Steel 2013 TS LINE REPACK XVID AC3 BHRG

escrito por Javi Sanchez el 12 julio 2013

Sin comentarios

Man of Steel 2013 TS LINE REPACK XVID AC3 BHRG

Código:

Format : AVI
Format/Info : Audio Video Interleave
Format profile : OpenDML
File size : 2.22 GiB
Duration : 2h 22mn
Overall bit rate : 2 229 Kbps
Writing library : VirtualDub build 30091/release

Video
ID : 0
Format : MPEG-4 Visual
Format profile : Advanced Simple@L5
Format settings, BVOP : 2
Format settings, QPel : No
Format settings, GMC : No warppoints
Format settings, Matrix : Default (H.263)
Muxing mode : Packed bitstream
Codec ID : XVID
Codec ID/Hint : XviD
Duration : 2h 22mn
Bit rate : 2 095 Kbps
Width : 720 pixels
Height : 304 pixels
Display aspect ratio : 2.35:1
Frame rate : 29.970 fps
Color space : YUV
Chroma subsampling : 4:2:0
Bit depth : 8 bits
Scan type : Progressive
Compression mode : Lossy
Bits/(Pixel*Frame) : 0.319
Stream size : 2.09 GiB (94%)
Writing library : XviD 1.2.1 (UTC 2008-12-04)

Audio
ID : 1
Format : AC-3
Format/Info : Audio Coding 3
Mode extension : CM (complete main)
Format settings, Endianness : Big
Codec ID : 2000
Duration : 2h 13mn
Bit rate mode : Constant
Bit rate : 128 Kbps
Channel(s) : 2 channels
Channel positions : Front: L R
Sampling rate : 48.0 KHz
Bit depth : 16 bits
Compression mode : Lossy
Stream size : 122 MiB (5%)


Código:

http://ul.to/3zhz4wro

http://ul.to/n4rrg4lz

http://ul.to/o4g7f4u9

http://rapidgator.net/file/fd5a02d785b3e356fc3b08673d74c3df/bhrg.part3.rar.html

http://rapidgator.net/file/0bea7c9d55b487068f07c09ecf40fcd4/bhrg.part2.rar.html

http://rapidgator.net/file/9f1ffb741ab1d8df4e094d1008590c4b/bhrg.part1.rar.html

Valoración: 0 / 5.00 (0 votos)

Todavía no hay comentarios, se el primero!

Escribir un comentario