Los Viajes de Tintín [DVDRip][Español][700MB][5/5][RG][1LINK]

escrito por Javi Sanchez el 9 julio 2013

Sin comentarios


Los viajes de Tintín (5/5) (2010)
Título original: Sur les traces de Tintin (Francia)
Género: Documentales > Viajes / Arte y cultura
Director: Marc Temmerman.
Duración: 51 minutos.
Resumen:
‘Los viajes de Tintín’ nos invita a un trayecto poco común: dar vida a las aventuras del famoso reportero a través de un viaje audiovisual per los sitios donde transcurren sus aventuras. Una forma original de descubrir o redescubrir a su autor, Hergé, y al propio Tintín.
Esta serie de cinco episodios combina las imágenes del intrépido aventurero con el mundo real que exploró en cinco de sus álbumes. Gracias a la cámara subjetiva y las técnicas de incrustación de viñetas, revivimos cada historia respetando los medios de transporte, los lugares, los personajes y sus peripecias. Desde los bosques de Perú hasta las cumbres de Nepal, de los desiertos de Marruecos hasta la lejana China, los espectadores se convierten en protagonistas del mágico mundo de Tintín".
Capítulo 1: Los viajes de Tintín: Egipto e India. "Los cigarros del faraón"
Tintín se pone en marcha tras las huellas de unos contrabandistas de opio en la aventura de “El Cangrejo de las Pinzas de Oro”. Las pistas le llevan, junto a su inseparable Milú, al corazón de Egipto e India. Desde Port Said, donde se encuentra el Canal de Suez, punto estratégico del comercio entre Europa y Asia, El Cairo y sus majestuosas pirámides, que cobijan y garantizan el descanso de los faraones, el Mar Rojo hasta la jungla, con sus elefantes y el palacio del Marajá…
Capítulo 2: Los viajes de Tintín: China. "El Loto Azul"
Al final del álbum “Los cigarros del faraón” dejamos a Tintín en el palacio de Marajá de Rawhajpurtalah disfrutando de un merecido descanso que es interrumpido por la visita de un misterioso emisario al que sólo da tiempo a pronunciar dos palabras: Shanghai y Mitsuhirato. Así se inicia la quinta aventura del reportero que transcurre, en su práctica totalidad, en la cosmopolita Shanghai de los años 30.
Capítulo 3: Nepal. "Tintín en el Tíbet".
Tintín decide buscar a su amigo Chang, desparecido tras un accidente de avión en Nepal. Un viaje apasionante por Nueva Delhi que lo lleva a toparse con dos monumentos patrimonio de la Humanidad. Uno es el alminar de ladrillos más alto del mundo, el Minar Qutub, un emblema del arte islámico; el otro es el fuerte rojo de Delhi que debe su color a la arenisca que lo cubre. Tintín también recorre la Jama Masjid o Mezquita del Viernes, una de las más grandes de toda India; el complejo religioso de Swayambhunath, muy conocido por los monos que lo merodean; los templos hindúes y la cordillera del Himalaya.
Capítulo 4: Marruecos. "El cangrejo de las pinzas de oro".
Tintín, Milú y el capitán Haddock se encuentran en Marruecos. Mientras el joven reportero intenta frustrar el tráfico de drogas, el marino combate su alcoholismo. Ambos recorren los puertos belgas, el desierto marroquí, la "tierra de la sed", una región del noroeste africano que forma parte del Desierto del Kalahari, el más grande del mundo. Las caravanas de beduinos y camellos y los bazares son los escenarios en los que se desarrolla esta aventura.
Capítulo 5: Perú. "El Templo del Sol".
Seguiremos el rastro de Tintín, el Capitán Haddock y Milú en un largo viaje a través de Perú. Desde Callao, los Andes y la selva peruana, hasta un secreto templo inca, en su empeño por rescatar al Profesor Tornasol, secuestrado en Las siete bolas de cristal, el anterior álbum de Hergé, por un grupo de descendiente de los antiguos incas, tras profanar inconscientemente la momia de Rascar Capac.
Código:

Format : AVI
Format/Info : Audio Video Interleave
File size : 699 MiB
Duration : 51mn 51s
Overall bit rate : 1 886 Kbps
Writing application : VirtualDubMod 1.5.10.2 (build 2540/release)
Writing library : VirtualDubMod build 2540/release

Video
ID : 0
Format : MPEG-4 Visual
Format profile : Advanced Simple@L5
Format settings, BVOP : 2
Format settings, QPel : No
Format settings, GMC : No warppoints
Format settings, Matrix : Default (MPEG)
Muxing mode : Packed bitstream
Codec ID : XVID
Codec ID/Hint : XviD
Duration : 51mn 51s
Bit rate : 1 748 Kbps
Width : 704 pixels
Height : 400 pixels
Display aspect ratio : 16:9
Frame rate : 25.000 fps
Color space : YUV
Chroma subsampling : 4:2:0
Bit depth : 8 bits
Scan type : Progressive
Compression mode : Lossy
Bits/(Pixel*Frame) : 0.248
Stream size : 648 MiB (93%)
Writing library : XviD 1.2.1 (UTC 2008-12-04)

Audio
ID : 1
Format : MPEG Audio
Format version : Version 1
Format profile : Layer 3
Mode : Joint stereo
Mode extension : MS Stereo
Codec ID : 55
Codec ID/Hint : MP3
Duration : 51mn 51s
Bit rate mode : Constant
Bit rate : 128 Kbps
Channel(s) : 2 channels
Sampling rate : 48.0 KHz
Compression mode : Lossy
Stream size : 47.5 MiB (7%)
Alignment : Aligned on interleaves
Interleave, duration : 40 ms (1.00 video frame)
Interleave, preload duration : 504 ms
Rapidgator
Código:

http://rapidgator.net/folder/119973/Los viajes de tin.html

Valoración: 0 / 5.00 (0 votos)

Todavía no hay comentarios, se el primero!

Escribir un comentario