Los miserables (1998)[Drama][Bdrip.m-720p.Dual.AC3.subs]

escrito por Javi Sanchez el 9 julio 2013

Sin comentarios


Título original Les Miserables
Año 1998
Duración 134 min.
País
Director Bille August
Guión Rafael Yglesias (Novela: Victor Hugo)
Música Basil Poledouris
Fotografía Jörgen Persson
Reparto Liam Neeson, Geoffrey Rush, Uma Thurman, Claire Danes, Hans Matheson, Reine Brynolfsson, Peter Vaughan, Kathleen Byron
Productora Mandalay Entertainment
Género Drama | Drama de época. Siglo XIX
Sinopsis Los Miserables es una épica historia de amor, honor y obsesión dentro de la dramática trasformación de la Francia de principios del siglo XIX. Cuenta la historia de Jean Valjean que, dura e injustamente condenado por robar una barra de pan, se ve perseguido por la justicia a lo largo de toda su vida. (FILMAFFINITY)

Mediainfo:
Spoiler

Complete name : Los miserables.1998.Bdrip.m-720p.Dual.x.lagartish.mkv
Format : Matroska
File size : 3.54 GiB
Duration : 2h 13mn
Overall bit rate : 3 786 Kbps
Movie name : Los miserables 1998 x lagartish
Encoded date : UTC 2013-05-01 08:45:15
Writing application : mkvmerge v4.8.0 (‘I Got The…’) creado el May 23 2011 22:30:05
Writing library : libebml v1.2.0 + libmatroska v1.1.0
Video
ID : 1
Format : AVC
Format/Info : Advanced Video Codec
Format profile : High@L4.1
Format settings, CABAC : Yes
Format settings, ReFrames : 9 frames
Codec ID : V_MPEG4/ISO/AVC
Duration : 2h 13mn
Bit rate : 2 889 Kbps
Width : 1 280 pixels
Height : 534 pixels
Display aspect ratio : 2.35:1
Frame rate : 23.976 fps
Color space : YUV
Chroma subsampling : 4:2:0
Bit depth : 8 bits
Scan type : Progressive
Bits/(Pixel*Frame) : 0.176
Stream size : 2.63 GiB (74%)
Encoding settings : cabac=1 / ref=9 / deblock=1:-3:-3 / analyse=0x3:0x113 / me=umh / subme=10 / psy=1 / psy_rd=1.00:0.00 / mixed_ref=1 / me_range=32 / chroma_me=1 / trellis=2 / 8x8dct=1 / cqm=0 / deadzone=21,11 / fast_pskip=0 / chroma_qp_offset=-2 / threads=12 / lookahead_threads=2 / sliced_threads=0 / nr=0 / decimate=0 / interlaced=0 / bluray_compat=0 / constrained_intra=0 / bframes=8 / b_pyramid=2 / b_adapt=2 / b_bias=0 / direct=3 / weightb=1 / open_gop=0 / weightp=2 / keyint=250 / keyint_min=23 / scenecut=40 / intra_refresh=0 / rc_lookahead=40 / rc=2pass / mbtree=1 / bitrate=2889 / ratetol=1.0 / qcomp=0.60 / qpmin=0 / qpmax=69 / qpstep=4 / cplxblur=20.0 / qblur=0.5 / ip_ratio=1.40 / aq=1:0.80
Language : English
Audio #1
ID : 2
Format : AC-3
Format/Info : Audio Coding 3
Mode extension : CM (complete main)
Codec ID : A_AC3
Duration : 2h 13mn
Bit rate mode : Constant
Bit rate : 448 Kbps
Channel(s) : 6 channels
Channel positions : Front: L C R, Side: L R, LFE
Sampling rate : 48.0 KHz
Bit depth : 16 bits
Compression mode : Lossy
Delay relative to video : 23s 120ms
Stream size : 429 MiB (12%)
Language : Spanish
Audio #2
ID : 3
Format : AC-3
Format/Info : Audio Coding 3
Mode extension : CM (complete main)
Codec ID : A_AC3
Duration : 2h 13mn
Bit rate mode : Constant
Bit rate : 448 Kbps
Channel(s) : 6 channels
Channel positions : Front: L C R, Side: L R, LFE
Sampling rate : 48.0 KHz
Bit depth : 16 bits
Compression mode : Lossy
Stream size : 429 MiB (12%)
Language : English
Text #1
ID : 4
Format : UTF-8
Codec ID : S_TEXT/UTF8
Codec ID/Info : UTF-8 Plain Text
Language : Spanish
Text #2
ID : 5
Format : UTF-8
Codec ID : S_TEXT/UTF8
Codec ID/Info : UTF-8 Plain Text
Language : English
Menu
00:00:00.000 : en:Chapter 1
00:06:20.922 : en:Chapter 2
00:16:18.519 : en:Chapter 3
00:26:56.865 : en:Chapter 4
00:35:40.513 : en:Chapter 5
00:47:21.047 : en:Chapter 6
00:55:15.062 : en:Chapter 7
01:01:47.120 : en:Chapter 8
01:13:37.955 : en:Chapter 9
01:16:37.551 : en:Chapter 10
01:24:04.790 : en:Chapter 11
01:36:09.639 : en:Chapter 12
01:40:08.419 : en:Chapter 13
01:50:08.894 : en:Chapter 14
01:55:17.160 : en:Chapter 15
02:04:56.072 : en:Chapter 16

Fuente de vídeo: Bdremux
Contenedor: mkv
Codificacion: 2 pasadas
Tamaño: 3.54 Gb
Tasa de Bits total 3786 kbps
Resolucion: 1280×544
Audio 1: AC3 448 kbps castellano
Audio 2: AC3 448 kbps ingles
Links: 12 de 299 Mb y 1 de 24 Mb
Archivos de recuperacion: 3 rev
Subs: Español e ingles completos
Archivos intercambiables
Descarga por Putlocker, Uploaded.to, Freakshare, Rapidgator, Bitshare, Cloudzer
http://linksave.in/80527931751859b1668e0c
http://941b45e3.linkbucks.com

Valoración: 0 / 5.00 (0 votos)

Todavía no hay comentarios, se el primero!

Escribir un comentario