Los Croods [2013][WebScreener][Cast HQ][Animacion][VS]

escrito por Javi Sanchez el 5 julio 2013

Sin comentarios



Cita:

Título original
The Croods
Año
2013
Duración
90 min.
País
Estados Unidos
Director
Kirk De Micco, Chris Sanders
Guión
Kirk De Micco, Chris Sanders
Música
Alan Silvestri
Fotografía
Yong Duk Jhun
Reparto
Animation
Productora
DreamWorks Animation
Género
Animación. Comedia. Aventuras | Prehistoria. 3-D
Web Oficial
http://www.thecroodsmovie.com/
Sinopsis
Prehistoria. Tras la destrucción de su hogar por un gran terremoto, Grug se ve obligado a emigrar con su familia. Mientras avanzan por un mundo desconocido y aterrador, se encuentran con un nómada de mente abierta que los deja a todos fascinados, sobre todo a a la hija de Grug. (FILMAFFINITY)



Spoiler

General
Format : AVI
Format/Info : Audio Video Interleave
File size : 1.37 GiB
Duration : 1h 37mn
Overall bit rate : 2 020 Kbps
Writing application : VirtualDubMod 1.5.10.2 (build 2542/release)
Writing library : VirtualDubMod build 2542/release
Video
ID : 0
Format : MPEG-4 Visual
Format profile : Advanced Simple@L5
Format settings, BVOP : 2
Format settings, QPel : No
Format settings, GMC : No warppoints
Format settings, Matrix : Default (H.263)
Muxing mode : Packed bitstream
Codec ID : XVID
Codec ID/Hint : XviD
Duration : 1h 37mn
Bit rate : 1 818 Kbps
Width : 720 pixels
Height : 304 pixels
Display aspect ratio : 2.35:1
Frame rate : 25.000 fps
Color space : YUV
Chroma subsampling : 4:2:0
Bit depth : 8 bits
Scan type : Progressive
Compression mode : Lossy
Bits/(Pixel*Frame) : 0.332
Stream size : 1.24 GiB (90%)
Writing library : XviD 64
Audio
ID : 1
Format : MPEG Audio
Format version : Version 1
Format profile : Layer 3
Mode : Joint stereo
Codec ID : 55
Codec ID/Hint : MP3
Duration : 1h 37mn
Bit rate mode : Constant
Bit rate : 192 Kbps
Channel(s) : 2 channels
Sampling rate : 48.0 KHz
Compression mode : Lossy
Delay relative to video : 480ms
Stream size : 134 MiB (10%)
Alignment : Aligned on interleaves
Interleave, duration : 40 ms (1.00 video frame)
Interleave, preload duration : 504 ms



LINKS INTERCAMBIABLES

*NO CAPTCHAS – Excelente Velocidad*
Código:

http://akafile.com/zq0hmas1dacd
http://akafile.com/whb5jz5ekawv

*DESCARGAS SIN CAPTCHAS*
No disponible por el momento

Código:

http://ul.to/daa7ehhr
http://ul.to/l5qzij6g
*1 LINK*
Código:

http://ul.to/074gmg3g

Descomprimir con Winrar

Valoración: 0 / 5.00 (0 votos)

Todavía no hay comentarios, se el primero!

Escribir un comentario