Leyendas de Pasión [MicroHD ] [1080p] [DTS-AC3 5.1-Cast-DTS Eng+Subs] [Romance] [1994]

escrito por Javi Sanchez el 9 julio 2013

Sin comentarios


Título original
Legends of the Fall
Año
1994
Duración
134 min.
País
[Estados Unidos] Estados Unidos
Director
Edward Zwick
Guión
Susan Shilliday & Bill Wittliff (Novela: Jim Harrison)
Música
James Horner
Fotografía
John Toll
Reparto
Brad Pitt, Anthony Hopkins, Julia Ormond, Aidan Quinn, Henry Thomas, Karina Lombard, Tantoo Cardinal, Gordon Tootoosis, Paul Desmond, Kenneth Welsh
Productora
TriStar Pictures / Columbia Pictures / Bedford Falls Productions
Género
Romance. Drama. Aventuras | Drama romántico. Cine épico. Vida rural (Norteamérica). Melodrama
Sinopsis
William Ludlow (Anthony Hopkins), un coronel abandonado por su mujer, ha criado a sus tres hijos en su gran rancho de Montana, en las colinas de las Montañas Rocosas. La Primera Guerra Mundial (1914-1918) y una bella mujer cambiarán el destino de todos ellos para siempre. Sus hijos son el indómito Tristan (Brad Pitt), el sensato Alfred (Aidan Quinn) y Samuel (Henry Thomas), el menor, que acaba de traer al rancho a su bella prometida Susannah (Julia Ormond). (FILMAFFINITY)
Mediainfo:
Código:

General
Format : Matroska
Format version : Version 4 / Version 2
File size : 7.52 GiB
Duration : 2h 12mn
Overall bit rate : 8 505 Kbps
Movie name : Leyenda de Pasion
Encoded date : UTC 2013-06-23 12:27:07
Writing application : mkvmerge v6.2.0 (‘Promised Land’) built on Apr 28 2013 12:22:01
Writing library : libebml v1.3.0 + libmatroska v1.4.0

Video
ID : 1
Format : AVC
Format/Info : Advanced Video Codec
Format profile : High@L4.0
Format settings, CABAC : Yes
Format settings, ReFrames : 3 frames
Codec ID : V_MPEG4/ISO/AVC
Duration : 2h 12mn
Bit rate : 4 444 Kbps
Nominal bit rate : 4 500 Kbps
Width : 1 920 pixels
Height : 1 080 pixels
Display aspect ratio : 16:9
Frame rate mode : Constant
Frame rate : 23.976 fps
Color space : YUV
Chroma subsampling : 4:2:0
Bit depth : 8 bits
Scan type : Progressive
Bits/(Pixel*Frame) : 0.086
Stream size : 3.97 GiB (53%)
Title : Leyenda de Pasion
Writing library : x264 core 130 r2273 b3065e6
Encoding settings : cabac=1 / ref=4 / deblock=1:-1:-1 / analyse=0x3:0x113 / me=hex / subme=7 / psy=1 / psy_rd=1.00:0.00 / mixed_ref=1 / me_range=16 / chroma_me=1 / trellis=1 / 8x8dct=1 / cqm=0 / deadzone=21,11 / fast_pskip=1 / chroma_qp_offset=-2 / threads=4 / lookahead_threads=1 / sliced_threads=0 / nr=0 / decimate=1 / interlaced=0 / bluray_compat=0 / constrained_intra=0 / bframes=4 / b_pyramid=1 / b_adapt=1 / b_bias=0 / direct=1 / weightb=1 / open_gop=0 / weightp=2 / keyint=250 / keyint_min=25 / scenecut=40 / intra_refresh=0 / rc_lookahead=40 / rc=abr / mbtree=1 / bitrate=4500 / ratetol=1.0 / qcomp=0.60 / qpmin=0 / qpmax=69 / qpstep=4 / ip_ratio=1.40 / aq=1:1.00
Default : Yes
Forced : No

Audio #1
ID : 2
Format : DTS
Format/Info : Digital Theater Systems
Mode : 16
Format settings, Endianness : Big
Codec ID : A_DTS
Duration : 2h 12mn
Bit rate mode : Constant
Bit rate : 1 509 Kbps
Channel(s) : 6 channels
Channel positions : Front: L C R, Side: L R, LFE
Sampling rate : 48.0 KHz
Bit depth : 24 bits
Compression mode : Lossy
Stream size : 1.40 GiB (19%)
Title : DTS 5.1 Castellano
Language : Spanish
Default : Yes
Forced : No

Audio #2
ID : 3
Format : DTS
Format/Info : Digital Theater Systems
Mode : 16
Format settings, Endianness : Big
Codec ID : A_DTS
Duration : 2h 12mn
Bit rate mode : Constant
Bit rate : 1 509 Kbps
Channel(s) : 6 channels
Channel positions : Front: L C R, Side: L R, LFE
Sampling rate : 48.0 KHz
Bit depth : 24 bits
Compression mode : Lossy
Stream size : 1.40 GiB (19%)
Title : DTS Inglés
Language : English
Default : No
Forced : No

Audio #3
ID : 4
Format : AC-3
Format/Info : Audio Coding 3
Mode extension : CM (complete main)
Format settings, Endianness : Big
Codec ID : A_AC3
Duration : 2h 12mn
Bit rate mode : Constant
Bit rate : 640 Kbps
Channel(s) : 6 channels
Channel positions : Front: L C R, Side: L R, LFE
Sampling rate : 48.0 KHz
Bit depth : 16 bits
Compression mode : Lossy
Stream size : 608 MiB (8%)
Title : AC3 5.1 Castellano
Language : Spanish
Default : No
Forced : No

Text #1
ID : 5
Format : UTF-8
Codec ID : S_TEXT/UTF8
Codec ID/Info : UTF-8 Plain Text
Title : sub.forz.es
Default : No
Forced : No

Text #2
ID : 6
Format : UTF-8
Codec ID : S_TEXT/UTF8
Codec ID/Info : UTF-8 Plain Text
Title : Subtitulos Ingés
Language : English
Default : Yes
Forced : No

Text #3
ID : 7
Format : UTF-8
Codec ID : S_TEXT/UTF8
Codec ID/Info : UTF-8 Plain Text
Title : Subtitulos Castellano
Language : Spanish
Default : No
Forced : No
Capturas:



Descarga (Uploaded.to + Bitshare):
Uploaded.to:
Código:

http://uploaded.net/file/tiergpc8/Leyendas%20de%20pasion%20Microhd%201080p.mkv.7z.001

http://uploaded.net/file/91sdlfpd/Leyendas%20de%20pasion%20Microhd%201080p.mkv.7z.002

http://uploaded.net/file/xj2upu0y/Leyendas%20de%20pasion%20Microhd%201080p.mkv.7z.003

http://uploaded.net/file/phj3lchf/Leyendas%20de%20pasion%20Microhd%201080p.mkv.7z.004

http://uploaded.net/file/gl40ey7j/Leyendas%20de%20pasion%20Microhd%201080p.mkv.7z.005

http://uploaded.net/file/nxaneo8v/Leyendas%20de%20pasion%20Microhd%201080p.mkv.7z.006

http://uploaded.net/file/indjzaqn/Leyendas%20de%20pasion%20Microhd%201080p.mkv.7z.007

http://uploaded.net/file/0hn3pyr8/Leyendas%20de%20pasion%20Microhd%201080p.mkv.7z.008
Bitshare.com:
Código:

http://bitshare.com/files/apwo59x2/Leyendas-de-pasion-Microhd-1080p.mkv.7z.001.html

http://bitshare.com/files/0v0kg3ow/Leyendas-de-pasion-Microhd-1080p.mkv.7z.002.html

http://bitshare.com/files/odj01rd3/Leyendas-de-pasion-Microhd-1080p.mkv.7z.003.html

http://bitshare.com/files/ovzeqy1v/Leyendas-de-pasion-Microhd-1080p.mkv.7z.004.html

http://bitshare.com/files/a021ejan/Leyendas-de-pasion-Microhd-1080p.mkv.7z.006.html

http://bitshare.com/files/n8dhcphm/Leyendas-de-pasion-Microhd-1080p.mkv.7z.005.html

http://bitshare.com/files/csbw6gls/Leyendas-de-pasion-Microhd-1080p.mkv.7z.007.html

http://bitshare.com/files/elowemzc/Leyendas-de-pasion-Microhd-1080p.mkv.7z.008.html

Valoración: 0 / 5.00 (0 votos)

Todavía no hay comentarios, se el primero!

Escribir un comentario