La Duda de Darwin (2009) [HD-Rip Castellano][Drama][VS]

escrito por Javi Sanchez el 10 julio 2013

Sin comentarios



Cita:

Título original
Creation
Año
2009
Duración
108 min.
País
Reino Unido
Director
Jon Amiel
Guión
John Collee (Libro: Randal Keynes)
Música
Christopher Young
Fotografía
Jess Hall
Reparto
Paul Bettany, Jennifer Connelly, Toby Jones, Jeremy Northam, Benedict Cumberbatch, Jim Carter, Martha West
Productora
BBC Films / Recorded Picture Company (RPC) / UK Film Council / Newmarket Films
Género
Drama | Biográfico. Siglo XIX
Web Oficial
http://creationthemovie.com/
Sinopsis
Charles Darwin (Paul Bettany), científico naturalista en la Inglaterra de principios del Siglo XIX, regresa de un largo viaje alrededor del mundo con la clave para explicar el origen de las especies. Pero cuando se dispone a publicar su revolucionaria teoría sobre la vida, se encuentra con una sociedad que no está preparada para el cambio y con la desaprobación de su propia esposa (Jennifer Connelly). Cuando su hija Annie fallece a la tierna edad de diez años, Charles y Emily se encontrarán ante el mayor dilema de su vida que pondrá a prueba su amor ¿Qué puede explicar la muerte, la religión o la Ciencia? (FILMAFFINITY)



Spoiler

General
Format : AVI
Format/Info : Audio Video Interleave
File size : 1.42 GiB
Duration : 1h 48mn
Overall bit rate : 1 873 Kbps
Writing application : VirtualDubMod 1.5.10.2 (build 2542/release)
Writing library : VirtualDubMod build 2542/release
Video
ID : 0
Format : MPEG-4 Visual
Format profile : Advanced Simple@L5
Format settings, BVOP : 2
Format settings, QPel : No
Format settings, GMC : No warppoints
Format settings, Matrix : Default (MPEG)
Muxing mode : Packed bitstream
Codec ID : XVID
Codec ID/Hint : XviD
Duration : 1h 48mn
Bit rate : 1 415 Kbps
Width : 704 pixels
Height : 304 pixels
Display aspect ratio : 2.35:1
Frame rate : 23.976 fps
Color space : YUV
Chroma subsampling : 4:2:0
Bit depth : 8 bits
Scan type : Progressive
Compression mode : Lossy
Bits/(Pixel*Frame) : 0.276
Stream size : 1.07 GiB (76%)
Writing library : XviD 1.2.1 (UTC 2008-12-04)
Audio
ID : 1
Format : AC-3
Format/Info : Audio Coding 3
Mode extension : CM (complete main)
Format settings, Endianness : Big
Codec ID : 2000
Duration : 1h 48mn
Bit rate mode : Constant
Bit rate : 448 Kbps
Channel(s) : 6 channels
Channel positions : Front: L C R, Side: L R, LFE
Sampling rate : 48.0 KHz
Bit depth : 16 bits
Compression mode : Lossy
Stream size : 347 MiB (24%)
Alignment : Split accross interleaves
Interleave, duration : 42 ms (1.00 video frame)
Interleave, preload duration : 500 ms



LINKS INTERCAMBIABLES

*NO CAPTCHAS – Excelente Velocidad*
NO DISPONIBLE POR EL MOMENTO

Código:

http://junocloud.me/somsw5lg098x/lduda.hdrip.papianton.part1.rar
http://junocloud.me/2vi3r1ys3059/lduda.hdrip.papianton.part2.rar

*DESCARGAS SIN CAPTCHAS*
Código:

http://muchshare.net/olsk4j85zt1q
http://muchshare.net/rd3gq1yq93ki

Código:

http://x7files.com/5bmfbvegysgm
http://x7files.com/r0uw85nem4ks

Código:

http://ul.to/6iqt2tz6
http://ul.to/59sa7gxb
1 LINK
Código:

http://junocloud.me/xlx4rzq4eb69/lduda.hdrip.papianton.avi
http://ul.to/bj4sw5ux
Descomprimir con Winrar

Valoración: 0 / 5.00 (0 votos)

Todavía no hay comentarios, se el primero!

Escribir un comentario