Killing Season 2013 WEBrip XVID AC3 BHRG

escrito por Javi Sanchez el 12 julio 2013

Sin comentarios

Killing Season 2013 WEBrip XVID AC3 BHRG

Código:

http://www.imdb.com/title/tt1480295/
Código:

Format : AVI
Format/Info : Audio Video Interleave
File size : 1.26 GiB
Duration : 1h 30mn
Overall bit rate : 1 991 Kbps
Writing library : VirtualDub build 30091/release

Video
ID : 0
Format : MPEG-4 Visual
Format profile : Advanced Simple@L5
Format settings, BVOP : 2
Format settings, QPel : No
Format settings, GMC : No warppoints
Format settings, Matrix : Default (H.263)
Muxing mode : Packed bitstream
Codec ID : XVID
Codec ID/Hint : XviD
Duration : 1h 30mn
Bit rate : 1 598 Kbps
Width : 720 pixels
Height : 304 pixels
Display aspect ratio : 2.35:1
Frame rate : 23.976 fps
Color space : YUV
Chroma subsampling : 4:2:0
Bit depth : 8 bits
Scan type : Progressive
Compression mode : Lossy
Bits/(Pixel*Frame) : 0.304
Stream size : 1.01 GiB (80%)
Writing library : XviD 1.2.1 (UTC 2008-12-04)

Audio
ID : 1
Format : AC-3
Format/Info : Audio Coding 3
Mode extension : CM (complete main)
Format settings, Endianness : Big
Codec ID : 2000
Duration : 1h 30mn
Bit rate mode : Constant
Bit rate : 384 Kbps
Channel(s) : 6 channels
Channel positions : Front: L C R, Side: L R, LFE
Sampling rate : 48.0 KHz
Bit depth : 16 bits
Compression mode : Lossy
Stream size : 249 MiB (19%)



Sample:
Código:

http://uploaded.net/file/syg7v3xy/Killing.Season.2013%20WEBrip%20XVID%20AC3%20BHRG%20sample.avi
Download:
Código:

http://uploaded.net/file/a1ybnmzr/Killing.Season.2013%20WEBrip%20XVID%20AC3%20BHRG.avi
or

http://uploaded.net/file/8mz88dzx/Killing.Season.2013%20WEBrip%20XVID%20AC3%20BHRG.part1.rar

http://uploaded.net/file/de8hssy3/Killing.Season.2013%20WEBrip%20XVID%20AC3%20BHRG.part2.rar

Valoración: 0 / 5.00 (0 votos)

Todavía no hay comentarios, se el primero!

Escribir un comentario