Jumper [MicroHD] [1080p] [AC3 5.1-Castellano-Ingles+Subs] [Ciencia Ficcion] [2008]

escrito por Javi Sanchez el 9 julio 2013

Sin comentarios


Título original
Jumper
Año
2008
Duración
88 min.
País
[Estados Unidos] Estados Unidos
Director
Doug Liman
Guión
David S. Goyer, Simon Kinberg, Jim Uhls (Novela: Steven Gould)
Música
John Powell
Fotografía
Barry Peterson
Reparto
Hayden Christensen, Jamie Bell, Rachel Bilson, Diane Lane, Samuel L. Jackson, Michael Rooker, AnnaSophia Robb, Max Thieriot, Jesse James, Tom Hulce, Kristen Stewart, Teddy Dunn, Barbara Garrick, Michael Winther, Meredith Henderson, Christian Pikes
Productora
20th Century Fox / New Regency Pictures / Dune Entertainment
Género
Ciencia ficción. Thriller. Acción
Web Oficial
http://microsites2.foxinternational.com/es/jumper/
Sinopsis
David Rice ha nacido con un misterioso poder: teletransportarse a cualquier lugar del mundo que desee. Siempre ha utilizado esta facultad para escapar de su pasado, incrementar su inmensa fortuna o conservar su independencia. Sin embargo, cuando conoce a Griffin, un exaltado trotamundos que tiene el mismo poder que él, descubre que no es un ser tan singular, sino que pertenece a un grupo de personas con anomalías genéticas ("los saltadores") que, además, nunca están a salvo. De hecho David ha sido identificado por una organización secreta cuya misión es matar a los "saltadores" y será víctima de una persecución sin tregua por todo el mundo. (FILMAFFINITY)
Mediainfo:
Código:

General
Format : Matroska
Format version : Version 4 / Version 2
File size : 2.74 GiB
Duration : 1h 24mn
Overall bit rate : 4 497 Kbps
Movie name : Jumper
Encoded date : UTC 2013-05-03 12:02:20
Writing application : mkvmerge v6.2.0 (‘Promised Land’) built on Apr 28 2013 12:22:01
Writing library : libebml v1.3.0 + libmatroska v1.4.0

Video
ID : 1
Format : AVC
Format/Info : Advanced Video Codec
Format profile : High@L4.0
Format settings, CABAC : Yes
Format settings, ReFrames : 3 frames
Codec ID : V_MPEG4/ISO/AVC
Duration : 1h 24mn
Bit rate : 4 310 Kbps
Width : 1 920 pixels
Height : 816 pixels
Display aspect ratio : 2.35:1
Frame rate mode : Constant
Frame rate : 25.000 fps
Color space : YUV
Chroma subsampling : 4:2:0
Bit depth : 8 bits
Scan type : Progressive
Bits/(Pixel*Frame) : 0.107
Stream size : 2.42 GiB (88%)
Title : Jumper
Writing library : x264 core 98 r1649 c54c47d
Encoding settings : cabac=1 / ref=3 / deblock=1:0:0 / analyse=0x3:0x113 / me=hex / subme=7 / psy=1 / psy_rd=1.00:0.00 / mixed_ref=1 / me_range=16 / chroma_me=1 / trellis=0 / 8x8dct=1 / cqm=0 / deadzone=21,11 / fast_pskip=1 / chroma_qp_offset=-2 / threads=1 / sliced_threads=0 / nr=0 / decimate=1 / interlaced=0 / constrained_intra=0 / bframes=3 / b_pyramid=0 / b_adapt=1 / b_bias=0 / direct=1 / weightb=1 / weightp=2 / keyint=250 / keyint_min=25 / scenecut=40 / intra_refresh=0 / rc_lookahead=40 / rc=2pass / mbtree=1 / bitrate=4199 / ratetol=1.0 / qcomp=0.60 / qpmin=10 / qpmax=51 / qpstep=4 / cplxblur=20.0 / qblur=0.5 / ip_ratio=1.40 / aq=1:1.00
Language : Spanish
Default : Yes
Forced : No

Audio #1
ID : 2
Format : AC-3
Format/Info : Audio Coding 3
Mode extension : CM (complete main)
Format settings, Endianness : Big
Codec ID : A_AC3
Duration : 1h 24mn
Bit rate mode : Constant
Bit rate : 224 Kbps
Channel(s) : 6 channels
Channel positions : Front: L C R, Side: L R, LFE
Sampling rate : 48.0 KHz
Bit depth : 16 bits
Compression mode : Lossy
Stream size : 136 MiB (5%)
Title : Ac3 5.1 Castellano
Language : Spanish
Default : Yes
Forced : No

Audio #2
ID : 3
Format : AC-3
Format/Info : Audio Coding 3
Mode extension : CM (complete main)
Format settings, Endianness : Big
Codec ID : A_AC3
Duration : 1h 24mn
Bit rate mode : Constant
Bit rate : 224 Kbps
Channel(s) : 6 channels
Channel positions : Front: L C R, Side: L R, LFE
Sampling rate : 48.0 KHz
Bit depth : 16 bits
Compression mode : Lossy
Stream size : 136 MiB (5%)
Title : Ac3 5.1 Ingles
Language : English
Default : No
Forced : No

Text #1
ID : 4
Format : UTF-8
Codec ID : S_TEXT/UTF8
Codec ID/Info : UTF-8 Plain Text
Title : Subtitulos Castellano
Language : Spanish
Default : No
Forced : No

Text #2
ID : 5
Format : UTF-8
Codec ID : S_TEXT/UTF8
Codec ID/Info : UTF-8 Plain Text
Title : Subtitulo Castellano
Language : Spanish
Default : No
Forced : No

Text #3
ID : 6
Format : UTF-8
Codec ID : S_TEXT/UTF8
Codec ID/Info : UTF-8 Plain Text
Title : Subtitulo Ingles
Language : English
Default : No
Forced : No

Text #4
ID : 7
Format : UTF-8
Codec ID : S_TEXT/UTF8
Codec ID/Info : UTF-8 Plain Text
Title : Subtitulos Forzados Castellano
Language : Spanish
Default : Yes
Forced : Yes
Capturas:



Descarga(Uploaded.to + Bitshare.com):
Uploaded.to:
Código:

http://uploaded.net/file/gkcflvzo/Jumper%20Microhd%201080p.mkv.7z.001

http://uploaded.net/file/r1tp4cff/Jumper%20Microhd%201080p.mkv.7z.002

http://uploaded.net/file/hy3yo0cm/Jumper%20Microhd%201080p.mkv.7z.003
Bitshare.com:
Código:

http://bitshare.com/files/16zaz2h9/Jumper-Microhd-1080p.mkv.7z.001.html

http://bitshare.com/files/iwftynss/Jumper-Microhd-1080p.mkv.7z.002.html

http://bitshare.com/files/fj5u82q1/Jumper-Microhd-1080p.mkv.7z.003.html

Valoración: 0 / 5.00 (0 votos)

Todavía no hay comentarios, se el primero!

Escribir un comentario