Jug Face 2013 WEBrip x264 Ac3-MiLLENiUM

escrito por Javi Sanchez el 12 julio 2013

Sin comentarios

Jug Face 2013 WEBrip x264 Ac3-MiLLENiUM

Código:

http://www.imdb.com/title/tt2620736/

General
Unique ID : 176563942357529438682181004842295744823 (0x84D4FA765C5EAB9FADCD6C077ED1D937)
Complete name : Jug.Face.2013.WEBrip x264 Ac3-MiLLENiUM.mkv
Source : WEBDL 720p[thanks]
Format : Matroska
Format version : Version 4 / Version 2
File size : 1.08 GiB
Duration : 1h 21mn
Overall bit rate mode : Variable
Overall bit rate : 1 896 Kbps
Encoded date : UTC 2013-07-11 21:34:15
Writing application : mkvmerge v6.3.0 (‘You can’t stop me!’) built on Jun 28 2013 20:09:41
Writing library : libebml v1.3.0 + libmatroska v1.4.0

Video
ID : 2
Format : AVC
Format/Info : Advanced Video Codec
Format profile : High@L4.1
Format settings, CABAC : Yes
Format settings, ReFrames : 3 frames
Codec ID : V_MPEG4/ISO/AVC
Duration : 1h 21mn
Bit rate mode : Variable
Bit rate : 1 510 Kbps
Maximum bit rate : 40.0 Mbps
Width : 720 pixels
Height : 304 pixels
Display aspect ratio : 2.35:1
Frame rate : 23.976 fps
Color space : YUV
Chroma subsampling : 4:2:0
Bit depth : 8 bits
Scan type : Progressive
Bits/(Pixel*Frame) : 0.288
Stream size : 857 MiB (78%)
Writing library : x264 core 133 r2334 a3ac64b

Language : English
Default : Yes
Forced : No
Color primaries : BT.709-5, BT.1361, IEC 61966-2-4, SMPTE RP177
Transfer characteristics : BT.709-5, BT.1361
Matrix coefficients : BT.709-5, BT.1361, IEC 61966-2-4 709, SMPTE RP177

Audio
ID : 1
Format : AC-3
Format/Info : Audio Coding 3
Mode extension : CM (complete main)
Codec ID : A_AC3
Duration : 1h 21mn
Bit rate mode : Constant
Bit rate : 384 Kbps
Channel(s) : 6 channels
Channel positions : Front: L C R, Side: L R, LFE
Sampling rate : 48.0 KHz
Bit depth : 16 bits
Compression mode : Lossy
Stream size : 223 MiB (20%)
Default : Yes
Forced : No
Screens :



Sample:
Código:

http://uploaded.net/file/g877avo9/sample.mkv

Download:
Código:

http://uploaded.net/file/g8b5wdfy/Jug.Face.2013.WEBrip%20×264%20Ac3-MiLLENiUM.mkv
or

http://uploaded.net/file/e7r0fq85/Jug.Face.2013.WEBrip%20×264%20Ac3-MiLLENiUM.part1.rar

http://uploaded.net/file/vevrb258/Jug.Face.2013.WEBrip%20×264%20Ac3-MiLLENiUM.part2.rar

Valoración: 0 / 5.00 (0 votos)

Todavía no hay comentarios, se el primero!

Escribir un comentario