Jack Reacher: Bajo La Mira [BDRip 720p][Español LATiNO/Ingles DTS][Sub][2012][Acción]

escrito por Javi Sanchez el 25 abril 2013

Sin comentarios

Jack Reacher: Bajo La Mira [BDRip 720p][Español LATiNO/Ingles DTS][Sub][2012][Acción]

Ficha Técnica

Jack Reacher (One Shot)
Jack Reacher: Bajo La Mira
Año 2012
Duración 130 min.
País Estados Unidos
Director Christopher McQuarrie
Guión Christopher McQuarrie, Josh Olson (Novela: Lee Child)
Música Joe Kraemer
Fotografía Caleb Deschanel
Reparto
Tom Cruise, Rosamund Pike, Richard Jenkins, Werner Herzog, Jai Courtney, Robert Duvall, Nicole Forester
Productora Paramount Pictures / Skydance Productions / Mutual Film Company
Género Acción. Thriller | Crimen
Sinopsis
Jack Reacher (Tom Cruise), un antiguo policía militar que vive semiescondido como un vagabundo y que trabaja por su cuenta, decide investigar el caso de un francotirador que ha sido acusado de matar, por puro azar, a cinco personas en un tiroteo. Al ser interrogado, el francotirador se declara inocente y, además, exige la presencia de Jack Reacher. (FILMAFFINITY)
Datos Técnicos

Código:

General
Format : Matroska
Format version : Version 2
File size : 6.25 GiB
Duration : 2h 10mn
Overall bit rate : 6 844 Kbps
Movie name : CadagotoHD.Com ¡Visítanos!
Encoded date : UTC 2013-04-25 06:26:00
Writing application : mkvmerge v3.4.0 (‘Rapunzel’) built on May 15 2010 09:38:20
Writing library : libebml v0.8.0 + libmatroska v0.9.0
Video
ID : 1
Format : AVC
Format/Info : Advanced Video Codec
Format profile : High@L4.1
Format settings, CABAC : Yes
Format settings, ReFrames : 5 frames
Codec ID : V_MPEG4/ISO/AVC
Duration : 2h 10mn
Bit rate : 4 489 Kbps
Width : 1 280 pixels
Height : 544 pixels
Display aspect ratio : 2.35:1
Frame rate mode : Constant
Frame rate : 23.976 fps
Color space : YUV
Chroma subsampling : 4:2:0
Bit depth : 8 bits
Scan type : Progressive
Bits/(Pixel*Frame) : 0.269
Stream size : 3.96 GiB (63%)
Title : CadagotoHD.Com ¡Visítanos!
Writing library : x264 core 130 r2273 b3065e6
Encoding settings : cabac=1 / ref=5 / deblock=1:-3:-3 / analyse=0×3:0×113 / me=umh / subme=8 / psy=1 / psy_rd=1.00:0.00 / mixed_ref=1 / me_range=16 / chroma_me=1 / trellis=1 / 8x8dct=1 / cqm=0 / deadzone=21,11 / fast_pskip=1 / chroma_qp_offset=-2 / threads=12 / lookahead_threads=2 / sliced_threads=0 / nr=0 / decimate=1 / interlaced=0 / bluray_compat=0 / constrained_intra=0 / bframes=3 / b_pyramid=2 / b_adapt=2 / b_bias=0 / direct=3 / weightb=1 / open_gop=0 / weightp=2 / keyint=240 / keyint_min=24 / scenecut=40 / intra_refresh=0 / rc_lookahead=50 / rc=2pass / mbtree=1 / bitrate=4489 / ratetol=1.0 / qcomp=0.60 / qpmin=0 / qpmax=69 / qpstep=4 / cplxblur=20.0 / qblur=0.5 / ip_ratio=1.40 / aq=1:1.00
Language : English
Default : No
Forced : No
Audio #1
ID : 2
Format : AC-3
Format/Info : Audio Coding 3
Mode extension : CM (complete main)
Format settings, Endianness : Big
Codec ID : A_AC3
Duration : 2h 10mn
Bit rate mode : Constant
Bit rate : 224 Kbps
Channel(s) : 2 channels
Channel positions : Front: L R
Sampling rate : 48.0 KHz
Bit depth : 16 bits
Compression mode : Lossy
Stream size : 210 MiB (3%)
Title : CadagotoHD.Com – Audio Español Latino
Language : Spanish
Default : Yes
Forced : Yes
Audio #2
ID : 3
Format : AC-3
Format/Info : Audio Coding 3
Mode extension : CM (complete main)
Format settings, Endianness : Big
Codec ID : A_AC3
Duration : 2h 10mn
Bit rate mode : Constant
Bit rate : 640 Kbps
Channel(s) : 6 channels
Channel positions : Front: L C R, Side: L R, LFE
Sampling rate : 48.0 KHz
Bit depth : 16 bits
Compression mode : Lossy
Stream size : 599 MiB (9%)
Title : CadagotoHD.Com – Audio Ingles AC3 5.1
Language : Spanish
Default : No
Forced : No
Audio #3
ID : 4
Format : DTS
Format/Info : Digital Theater Systems
Mode : 16
Format settings, Endianness : Big
Codec ID : A_DTS
Duration : 2h 10mn
Bit rate mode : Constant
Bit rate : 1 509 Kbps
Channel(s) : 6 channels
Channel positions : Front: L C R, Side: L R, LFE
Sampling rate : 48.0 KHz
Bit depth : 24 bits
Compression mode : Lossy
Delay relative to video : 11ms
Stream size : 1.38 GiB (22%)
Title : CadagotoHD.Com – Audio Ingles DTS
Language : English
Default : No
Forced : No
Text #1
ID : 5
Format : UTF-8
Codec ID : S_TEXT/UTF8
Codec ID/Info : UTF-8 Plain Text
Title : CadagotoHD.Com – Subtitulos Español Latino
Language : Spanish
Default : No
Forced : No
Text #2
ID : 6
Format : UTF-8
Codec ID : S_TEXT/UTF8
Codec ID/Info : UTF-8 Plain Text
Title : CadagotoHD.Com – Subtitulos Ingles
Language : English
Default : No
Forced : No
Text #3
ID : 7
Format : UTF-8
Codec ID : S_TEXT/UTF8
Codec ID/Info : UTF-8 Plain Text
Language : Spanish
Default : Yes
Forced : Yes
Menu
00:00:00.000 : en:00:00:00.000
00:08:21.668 : en:00:08:21.668
00:14:19.901 : en:00:14:19.901
00:21:51.685 : en:00:21:51.685
00:30:02.342 : en:00:30:02.342
00:35:46.478 : en:00:35:46.478
00:41:22.980 : en:00:41:22.980
00:49:08.112 : en:00:49:08.112
00:55:36.291 : en:00:55:36.291
01:01:44.117 : en:01:01:44.117
01:08:11.296 : en:01:08:11.296
01:16:56.320 : en:01:16:56.320
01:23:51.526 : en:01:23:51.526
01:30:20.165 : en:01:30:20.165
01:38:01.584 : en:01:38:01.584
01:45:08.928 : en:01:45:08.928
01:53:39.312 : en:01:53:39.312
02:01:50.470 : en:02:01:50.470





Descargar Enlaces AQUI
http://s2l.biz/yiexslmi4t6f

Utiliza los Archivos .REV si tienes problema con 1,2,3 archivos en su descarga , Esté off o corruptos

Si necesitas 2 archivos , Bajas 2 REV y los reconstruirán Cualquiera que fuesen los que te falten !

Todavía no hay comentarios, se el primero!

Escribir un comentario