Jack el caza gigantes [BDrip 720][Ac3 (es-ES);DTS (en-US)][Fantastico][2013]

escrito por Javi Sanchez el 12 julio 2013

Sin comentarios



Jack el caza gigantes

Cita:

Título original Jack the Giant Slayer (Jack the Giant Killer)
Año 2013
Duración 114 min.
País [Estados Unidos] Estados Unidos
Director Bryan Singer
Guión Christopher McQuarrie, Mark Bomback, Darren Lemke, Dan Studney (Fábula: Hans Christian Andersen)
Música John Ottman
Fotografía Newton Thomas Sigel
Reparto Nicholas Hoult, Eleanor Tomlinson, Ewan McGregor, Stanley Tucci, Eddie Marsan, Ewen Bremner, Ian McShane, Christopher Fairbank, Bill Nighy, Warwick Davis, John Kassir, Simon Lowe, Mingus Johnston, Ralph Brown, Lee Boardman
Productora Legendary Pictures / New Line Cinema / Original Film
Género Fantástico. Aventuras | Cuentos. 3-D

SINOPSIS: La paz entre los seres humanos y los gigantes llega a su fin cuando éstos secuestran a una princesa. Un grupo de hombres valientes encabezados por un joven granjero intentarán rescatarla. Adaptación para adultos del cuento infantil Jack y las Habichuelas Mágicas. (FILMAFFINITY)

Spoiler

Format : Matroska
Format version : Version 4 / Version 2
File size : 5.99 GiB
Duration : 1h 54mn
Overall bit rate : 7 500 Kbps
Movie name : Jack el caza gigantes 720 Baalberith
Encoded date : UTC 2013-07-12 18:41:40
Writing application : mkvmerge v6.3.0 (‘You can’t stop me!’) built on Jun 28 2013 20:09:41
Writing library : libebml v1.3.0 + libmatroska v1.4.0
Video
ID : 1
Format : AVC
Format/Info : Advanced Video Codec
Format profile : High@L4.1
Format settings, CABAC : Yes
Format settings, ReFrames : 12 frames
Codec ID : V_MPEG4/ISO/AVC
Duration : 1h 54mn
Bit rate : 5 330 Kbps
Width : 1 280 pixels
Height : 534 pixels
Display aspect ratio : 2.40:1
Frame rate : 23.976 fps
Color space : YUV
Chroma subsampling : 4:2:0
Bit depth : 8 bits
Scan type : Progressive
Bits/(Pixel*Frame) : 0.325
Stream size : 4.15 GiB (69%)
Title : Jack el caza gigantes 720 Baalberith
Writing library : x264 core 130 r2273 b3065e6
Encoding settings : cabac=1 / ref=12 / deblock=1:-3:-3 / analyse=0x3:0x113 / me=umh / subme=11 / psy=1 / psy_rd=0.80:0.15 / mixed_ref=1 / me_range=32 / chroma_me=1 / trellis=2 / 8x8dct=1 / cqm=0 / deadzone=21,11 / fast_pskip=0 / chroma_qp_offset=-5 / threads=12 / lookahead_threads=2 / sliced_threads=0 / nr=0 / decimate=0 / interlaced=0 / bluray_compat=0 / constrained_intra=0 / bframes=8 / b_pyramid=2 / b_adapt=2 / b_bias=0 / direct=3 / weightb=1 / open_gop=0 / weightp=2 / keyint=250 / keyint_min=23 / scenecut=40 / intra_refresh=0 / rc_lookahead=80 / rc=2pass / mbtree=1 / bitrate=5330 / ratetol=1.0 / qcomp=0.60 / qpmin=0 / qpmax=69 / qpstep=4 / cplxblur=20.0 / qblur=0.5 / ip_ratio=1.40 / aq=1:0.90
Language : Spanish
Default : Yes
Forced : No
Audio #1
ID : 2
Format : AC-3
Format/Info : Audio Coding 3
Mode extension : CM (complete main)
Format settings, Endianness : Big
Codec ID : A_AC3
Duration : 1h 54mn
Bit rate mode : Constant
Bit rate : 640 Kbps
Channel(s) : 6 channels
Channel positions : Front: L C R, Side: L R, LFE
Sampling rate : 48.0 KHz
Bit depth : 16 bits
Compression mode : Lossy
Stream size : 524 MiB (9%)
Title : Ac3 5.1@640 kbps
Language : Spanish
Default : Yes
Forced : No
Audio #2
ID : 3
Format : DTS
Format/Info : Digital Theater Systems
Codec ID : A_DTS
Duration : 1h 54mn
Bit rate mode : Constant
Bit rate : 1 510 Kbps
Channel(s) : 6 channels
Channel positions : Front: L C R, Side: L R, LFE
Sampling rate : 48.0 KHz
Bit depth : 24 bits
Compression mode : Lossy
Stream size : 1.21 GiB (20%)
Title : DTS 5.1@1510 kbps
Language : English
Default : No
Forced : No
Text #1
ID : 4
Format : PGS
Muxing mode : zlib
Codec ID : S_HDMV/PGS
Codec ID/Info : The same subtitle format used on BDs/HD-DVDs
Title : Forzados (PGS)
Language : Spanish
Default : Yes
Forced : No
Text #2
ID : 5
Format : PGS
Muxing mode : zlib
Codec ID : S_HDMV/PGS
Codec ID/Info : The same subtitle format used on BDs/HD-DVDs
Title : Spanish (PGS)
Language : Spanish
Default : No
Forced : No
Text #3
ID : 6
Format : PGS
Muxing mode : zlib
Codec ID : S_HDMV/PGS
Codec ID/Info : The same subtitle format used on BDs/HD-DVDs
Title : English (PGS)
Language : English
Default : No
Forced : No
Text #4
ID : 7
Format : UTF-8
Codec ID : S_TEXT/UTF8
Codec ID/Info : UTF-8 Plain Text
Title : Forzados (Planos)
Language : Spanish
Default : No
Forced : No
Text #5
ID : 8
Format : UTF-8
Codec ID : S_TEXT/UTF8
Codec ID/Info : UTF-8 Plain Text
Title : Spanish (Planos)
Language : Spanish
Default : No
Forced : No
Text #6
ID : 9
Format : UTF-8
Codec ID : S_TEXT/UTF8
Codec ID/Info : UTF-8 Plain Text
Title : English (Planos)
Language : English
Default : No
Forced : No
Menu
00:00:00.000 : en:00:00:00.000
00:10:21.371 : en:00:10:21.371
00:19:23.746 : en:00:19:23.746
00:29:52.207 : en:00:29:52.207
00:38:55.375 : en:00:38:55.375
00:49:24.879 : en:00:49:24.879
00:59:35.489 : en:00:59:35.489
01:09:26.287 : en:01:09:26.287
01:20:39.168 : en:01:20:39.168
01:29:38.498 : en:01:29:38.498
01:38:50.007 : en:01:38:50.007
01:45:44.922 : en:01:45:44.922

Tamaño:5,99Gb
Formato / Contenedor: Matroska
Video Codec: AVC
Profile: High@L4.1 Marcos:12
Resolución: 1280×534
Audio 1: Spanish Ac3 640 Kbps 6 channels
Audio 2: English DTS 1510 Kbps 6 channels
Subtitulos:Forzados,Spanish,English (PGS&Planos)
Servidor(es) : Rapidgator,DDLStorage,Uploaded.net,Bitshare,Putloc ker (98%-2)…INTERCAMBIABLES.
Formato Compresión : Comprimido y partido en 13 partes con winrar
Archivos recuperación : Contiene 3 archivos de recuperación rar (Se abren con winrar)
Verificación : 1 archivo verificador
Sample:SI Contiene sample de aprx.100-150mb para ver calidad audio/video/subs,sincronizacion etc.
Capitulos:SI contiene capitulos.
Recuperacion:SI, cada archivo consta de un 5% de recuperacion.
Descargar Jack el caza gigantes 720p
INFORMACION: Montaje,sincronizacion-audio-subtitulos: Baalberith
Código:

http://8362d758.miniurls.co
Código:

http://adf.ly/RzJoV

Un saludo.

Valoración: 0 / 5.00 (0 votos)

Todavía no hay comentarios, se el primero!

Escribir un comentario