Iron Man 3 [2013] [Castellano] [Ts-Screener] [Superhéroe] [1 Link] [2 Host]

escrito por Javi Sanchez el 13 julio 2013

Sin comentarios


Sinopsis
En "Iron Man 3" de Marvel, el descarado pero brillante empresario Tony Stark/Iron Man se enfrentará a un enemigo cuyo poder no conoce límites. Cuando Stark comprende que su enemigo ha destruido su universo personal, se embarca en una angustiosa búsqueda para encontrar a los responsables. Este viaje pondrá a prueba su entereza una y otra vez. Acorralado, Stark tendrá que sobrevivir por sus propios medios, confiando en su ingenio y su instinto para proteger a las personas que quiere. Durante su lucha, Stark conocerá la respuesta a la pregunta que le atormenta en secreto: ¿El hábito hace al monje o es al contrario?
Información
VER TRAILER AQUÍ
Año: 2013
Duración: 130 min
Género: Superhéroe, Ciencia ficción, Acción
Título Original: Iron Man 3
Reparto:
Robert Downey Jr.,Guy Pearce,Gwyneth Paltrow,Paul Bettany,Ben Kingsley,Jon Favreau,Rebecca Hall,Don Cheadle,William Sadler,James Badge Dale,Stan Lee,Stephanie Szostak,Dale Dickey,Yvonne Zima,Ashley Hamilton
Ficha técnica
Código:

Format : MPEG-4
Format profile : Base Media / Version 2
Codec ID : mp42
File size : 764 MiB
Duration : 1h 58mn
Overall bit rate mode : Variable
Overall bit rate : 904 Kbps
Encoded date : UTC 2013-04-26 18:56:48
Tagged date : UTC 2013-04-26 18:56:48
Writing application : FormatFactory : www.pcfreetime.com

Video
ID : 201
Format : MPEG-4 Visual
Format profile : Simple@L1
Format settings, BVOP : No
Format settings, QPel : No
Format settings, GMC : No warppoints
Format settings, Matrix : Default (H.263)
Codec ID : 20
Duration : 1h 58mn
Bit rate mode : Variable
Bit rate : 768 Kbps
Maximum bit rate : 2 448 Kbps
Width : 720 pixels
Height : 304 pixels
Display aspect ratio : 2.35:1
Frame rate mode : Constant
Frame rate : 25.000 fps
Color space : YUV
Chroma subsampling : 4:2:0
Bit depth : 8 bits
Scan type : Progressive
Compression mode : Lossy
Bits/(Pixel*Frame) : 0.140
Stream size : 649 MiB (85%)
Writing library : Lavc53.8.0
Encoded date : UTC 2013-04-26 18:56:48
Tagged date : UTC 2013-04-26 18:57:00

Audio
ID : 101
Format : AAC
Format/Info : Advanced Audio Codec
Format profile : LC
Codec ID : 40
Duration : 1h 58mn
Bit rate mode : Variable
Bit rate : 132 Kbps
Maximum bit rate : 167 Kbps
Channel(s) : 2 channels
Channel positions : Front: L R
Sampling rate : 44.1 KHz
Compression mode : Lossy
Stream size : 113 MiB (15%)
Encoded date : UTC 2013-04-26 18:56:56
Tagged date : UTC 2013-04-26 18:57:00
Capturas

Descargar
Freakshare fue agregado!!!

http://goldpaste.us/paste-fnHXzIWJ

Valoración: 0 / 5.00 (0 votos)

Todavía no hay comentarios, se el primero!

Escribir un comentario