Hulk [BDrip 1080][Ac3-DTS (es-ES);DTS (en-US)][Accion][2003]

escrito por Javi Sanchez el 8 julio 2013

Sin comentarios



The Hulk

Cita:

Título original The Hulk
Año 2003
Duración 137 min.
País [Estados Unidos] Estados Unidos
Director Ang Lee
Guión James Schamus, John Turman, Michael France (Cómic: Stan Lee & Jack Kirby)
Música Danny Elfman
Fotografía Frederick Elmes
Reparto Eric Bana, Jennifer Connelly, Sam Elliott, Josh Lucas, Nick Nolte, Paul Kersey, Cara Buono, Todd Tesen, Kevin Rankin, Celia Weston, Mike Erwin, Lou Ferrigno, Stan Lee, Craig Damon, Geoffrey Scott
Productora Universal Pictures
Género Fantástico. Acción. Ciencia ficción. Drama | Superhéroes. Cómic. Marvel Comics. Años 80

SINOPSIS: Bruce Banner (Eric Bana), un brillante investigador en el campo de la tecnología genética, oculta un pasado doloroso que lo ha dejado estigmatizado. Su antigua novia, la investigadora Betty Ross (Jennifer Connelly), que perdió la paciencia esperando que recuperara la estabilidad emocional, fue testigo de un grave accidente sufrido por Banner en el laboratorio: debido a una explosión el cuerpo del científico absorbió una dosis letal de rayos gamma; desde entonces, Banner empezó a sentir en su interior la presencia de un ente peligroso y, a la vez, oscuramente atractivo. Mientras tanto, Hulk, una criatura salvaje y prodigiosamente fuerte aparece esporádicamente, dejando tras de sí una estela de destrucción. Se trata de una situación de emergencia que exige la intervención del ejército, encabezado por el padre de Betty, el general "Thunderbolt" Ross (Sam Elliott). Betty es la única que sospecha que Bruce tiene algo que ver con Hulk, pero su intento de impedir la caza del monstruo puede resultar inútil. (FILMAFFINITY)

Spoiler

Format : Matroska
Format version : Version 4 / Version 2
File size : 15.4 GiB
Duration : 2h 18mn
Overall bit rate : 15.9 Mbps
Movie name : Hulk 1080 Baalberith
Encoded date : UTC 2013-06-29 13:45:40
Writing application : mkvmerge v6.2.0 (‘Promised Land’) built on Apr 28 2013 12:22:01
Writing library : libebml v1.3.0 + libmatroska v1.4.0
Video
ID : 1
Format : AVC
Format/Info : Advanced Video Codec
Format profile : High@L4.1
Format settings, CABAC : Yes
Format settings, ReFrames : 4 frames
Codec ID : V_MPEG4/ISO/AVC
Duration : 2h 18mn
Bit rate : 13.0 Mbps
Width : 1 920 pixels
Height : 1 040 pixels
Display aspect ratio : 1.85:1
Frame rate mode : Constant
Frame rate : 23.976 fps
Color space : YUV
Chroma subsampling : 4:2:0
Bit depth : 8 bits
Scan type : Progressive
Bits/(Pixel*Frame) : 0.272
Stream size : 12.3 GiB (80%)
Title : Hulk 1080 Baalberith
Writing library : x264 core 130 r2273 b3065e6
Encoding settings : cabac=1 / ref=4 / deblock=1:-2:-1 / analyse=0x3:0x113 / me=esa / subme=10 / psy=1 / psy_rd=1.00:0.00 / mixed_ref=1 / me_range=16 / chroma_me=1 / trellis=2 / 8x8dct=1 / cqm=0 / deadzone=21,11 / fast_pskip=1 / chroma_qp_offset=-2 / threads=18 / lookahead_threads=1 / sliced_threads=0 / nr=0 / decimate=1 / interlaced=0 / bluray_compat=0 / constrained_intra=0 / bframes=3 / b_pyramid=2 / b_adapt=2 / b_bias=0 / direct=1 / weightb=1 / open_gop=0 / weightp=2 / keyint=240 / keyint_min=24 / scenecut=40 / intra_refresh=0 / rc_lookahead=40 / rc=2pass / mbtree=1 / bitrate=13000 / ratetol=1.0 / qcomp=0.60 / qpmin=0 / qpmax=69 / qpstep=4 / cplxblur=20.0 / qblur=0.5 / ip_ratio=1.40 / aq=1:1.00
Language : Spanish
Default : Yes
Forced : No
Color primaries : BT.709
Transfer characteristics : BT.709
Matrix coefficients : BT.709
Audio #1
ID : 2
Format : AC-3
Format/Info : Audio Coding 3
Mode extension : CM (complete main)
Format settings, Endianness : Big
Codec ID : A_AC3
Duration : 2h 18mn
Bit rate mode : Constant
Bit rate : 640 Kbps
Channel(s) : 6 channels
Channel positions : Front: L C R, Side: L R, LFE
Sampling rate : 48.0 KHz
Bit depth : 16 bits
Compression mode : Lossy
Stream size : 633 MiB (4%)
Title : Ac3 5.1@640 kbps
Language : Spanish
Default : Yes
Forced : No
Audio #2
ID : 3
Format : DTS
Format/Info : Digital Theater Systems
Mode : 16
Format settings, Endianness : Big
Codec ID : A_DTS
Duration : 2h 18mn
Bit rate mode : Constant
Bit rate : 768 Kbps
Channel(s) : 6 channels
Channel positions : Front: L C R, Side: L R, LFE
Sampling rate : 48.0 KHz
Bit depth : 24 bits
Compression mode : Lossy
Stream size : 759 MiB (5%)
Title : DTS 5.1@768 kbps
Language : Spanish
Default : No
Forced : No
Audio #3
ID : 4
Format : DTS
Format/Info : Digital Theater Systems
Mode : 16
Format settings, Endianness : Big
Codec ID : A_DTS
Duration : 2h 18mn
Bit rate mode : Constant
Bit rate : 1 509 Kbps
Channel(s) : 6 channels
Channel positions : Front: L C R, Side: L R, LFE
Sampling rate : 48.0 KHz
Bit depth : 24 bits
Compression mode : Lossy
Stream size : 1.46 GiB (9%)
Title : DTS 5.1@1510 kbps
Language : English
Default : No
Forced : No
Text #1
ID : 5
Format : PGS
Muxing mode : zlib
Codec ID : S_HDMV/PGS
Codec ID/Info : The same subtitle format used on BDs/HD-DVDs
Title : Spanish
Language : Spanish
Default : No
Forced : No
Text #2
ID : 6
Format : PGS
Muxing mode : zlib
Codec ID : S_HDMV/PGS
Codec ID/Info : The same subtitle format used on BDs/HD-DVDs
Title : English
Language : English
Default : No
Forced : No
Text #3
ID : 7
Format : UTF-8
Codec ID : S_TEXT/UTF8
Codec ID/Info : UTF-8 Plain Text
Title : Spanish
Language : Spanish
Default : No
Forced : No
Text #4
ID : 8
Format : UTF-8
Codec ID : S_TEXT/UTF8
Codec ID/Info : UTF-8 Plain Text
Title : English
Language : English
Default : No
Forced : No
Menu
00:00:00.000 : en:00:00:00.000
00:04:20.302 : en:00:04:20.302
00:11:21.681 : en:00:11:21.681
00:13:55.293 : en:00:13:55.293
00:17:24.377 : en:00:17:24.377
00:20:12.962 : en:00:20:12.962
00:22:50.661 : en:00:22:50.661
00:29:17.005 : en:00:29:17.005
00:32:37.956 : en:00:32:37.956
00:37:03.138 : en:00:37:03.138
00:39:24.946 : en:00:39:24.946
00:45:12.960 : en:00:45:12.960
00:49:01.147 : en:00:49:01.147
00:54:11.290 : en:00:54:11.290
00:57:40.123 : en:00:57:40.123
00:59:53.340 : en:00:59:53.340
01:11:14.937 : en:01:11:14.937
01:16:10.733 : en:01:16:10.733
01:19:14.416 : en:01:19:14.416
01:24:54.715 : en:01:24:54.715
01:27:20.944 : en:01:27:20.944
01:32:04.519 : en:01:32:04.519
01:36:14.686 : en:01:36:14.686
01:41:42.346 : en:01:41:42.346
01:47:10.758 : en:01:47:10.758
01:49:49.082 : en:01:49:49.082
01:55:37.055 : en:01:55:37.055
02:02:55.910 : en:02:02:55.910
02:07:34.313 : en:02:07:34.313
02:08:31.370 : en:02:08:31.370
02:11:07.359 : en:02:11:07.359
02:12:41.620 : en:02:12:41.620

Tamaño:15,4Gb
Formato / Contenedor: Matroska
Video Codec: AVC
Profile: High@L4.1 Marcos:4
Resolución: 1920×1040
Audio 1: Spanish Ac3 640 Kbps 6 channels
Audio 2: Spanish DTS 768 Kbps 6 channels
Audio 3: English DTS 1510 Kbps 6 channels
Subtitulos:Spanish,English (PGS&Planos)
Servidor(es) : Rapidgator,DDLStorage,Uploaded.net,Bitshare,Putloc ker (98%-2)…INTERCAMBIABLES.
Formato Compresión : Comprimido y partido en 33 partes con winrar
Archivos recuperación : Contiene 3 archivos de recuperación rar (Se abren con winrar)
Verificación : 1 archivo verificador
Sample:SI Contiene sample de aprx.100-150mb para ver calidad audio/video/subs,sincronizacion etc.
Capitulos:SI contiene capitulos.
Recuperacion:SI, cada archivo consta de un 5% de recuperacion.
Descargar The Hulk 1080p
INFORMACION: Codificacion de video (ripeo),montaje,sincronizacion-audio-subtitulos: Baalberith
Código:

http://f5202595.miniurls.co
Código:

http://adf.ly/RianJ

Un saludo.

Valoración: 0 / 5.00 (0 votos)

Todavía no hay comentarios, se el primero!

Escribir un comentario