Hay alguien ahi (2009) [DVDRip Castellano][Drama.Comedia][VS]

escrito por Javi Sanchez el 10 julio 2013

Sin comentarios



Cita:

Título original
Is Anybody There? (Is There Anybody There?)
Año
2009
Duración
95 min.
País
Reino Unido
Director
John Crowley
Guión
Peter Harness
Música
Joby Talbot
Fotografía
Rob Hardy
Reparto
Michael Caine, Bill Milner, David Morrissey, Anne-Marie Duff, Rosemary Harris, Thelma Barlow
Productora
Big Beach Films / Heyday Films
Género
Comedia. Drama | Años 80. Amistad. Vejez
Sinopsis
Inglaterra, años ochenta. Edwad (Milner) es un niño de diez años que vive en una casa que sus padres han convertido en residencia para el cuidado de ancianos. Mientras la madre se encarga del negocio, el padre se enfrenta a una crisis de la mediana edad. Edward, por su parte, vive obsesionado con la idea de a dónde va el alma de los mayores cuando mueren. Un día, inesperadamente, aparece Clarence (Caine), un mago ya retirado… (FILMAFFINITY)



Spoiler

General
Format : AVI
Format/Info : Audio Video Interleave
File size : 828 MiB
Duration : 1h 30mn
Overall bit rate : 1 277 Kbps
Writing application : Lavf52.78.4
Video
ID : 0
Format : MPEG-4 Visual
Format profile : Advanced Simple@L5
Format settings, BVOP : 2
Format settings, QPel : No
Format settings, GMC : No warppoints
Format settings, Matrix : Default (H.263)
Muxing mode : Packed bitstream
Codec ID : DX50
Codec ID/Hint : DivX 5
Duration : 1h 30mn
Bit rate : 1 074 Kbps
Width : 720 pixels
Height : 304 pixels
Display aspect ratio : 2.35:1
Frame rate : 25.000 fps
Color space : YUV
Chroma subsampling : 4:2:0
Bit depth : 8 bits
Scan type : Progressive
Compression mode : Lossy
Bits/(Pixel*Frame) : 0.196
Stream size : 696 MiB (84%)
Writing library : XviD 1.2.1 (UTC 2008-12-04)
Audio
ID : 1
Format : AC-3
Format/Info : Audio Coding 3
Mode extension : CM (complete main)
Format settings, Endianness : Big
Codec ID : 2000
Duration : 1h 30mn
Bit rate mode : Constant
Bit rate : 192 Kbps
Channel(s) : 2 channels
Channel positions : Front: L R
Sampling rate : 48.0 KHz
Bit depth : 16 bits
Compression mode : Lossy
Stream size : 124 MiB (15%)
Alignment : Aligned on interleaves
Interleave, duration : 32 ms (0.80 video frame)
Interleave, preload duration : 32 ms



LINKS INTERCAMBIABLES

*NO CAPTCHAS – Excelente Velocidad*
Código:

http://akafile.com/2hhp2lh666m7

Código:

http://junocloud.me/cdgejxx426gr/Hay.alguien.ahi.DVDRip.papianton.rar

*DESCARGAS SIN CAPTCHAS*
Código:

http://muchshare.net/nrb236l056az

Código:

http://x7files.com/jkcqolrwmdh5

Código:

http://ul.to/vwa0iuhh
Descomprimir con Winrar

Valoración: 0 / 5.00 (0 votos)

Todavía no hay comentarios, se el primero!

Escribir un comentario