G I Joe Retaliation 2013 DVDRip XviD AC3 BHRG

escrito por Javi Sanchez el 5 julio 2013

Sin comentarios

G I Joe Retaliation 2013 DVDRip XviD AC3 BHRG

Código:

http://www.imdb.com/title/tt1583421/
Código:

Format : AVI
Format/Info : Audio Video Interleave
Format profile : OpenDML
File size : 2.10 GiB
Duration : 1h 45mn
Overall bit rate : 2 842 Kbps
Writing library : VirtualDub build 30091/release

Video
ID : 0
Format : MPEG-4 Visual
Format profile : Advanced Simple@L5
Format settings, BVOP : 2
Format settings, QPel : No
Format settings, GMC : No warppoints
Format settings, Matrix : Default (H.263)
Muxing mode : Packed bitstream
Codec ID : XVID
Codec ID/Hint : XviD
Duration : 1h 45mn
Bit rate : 2 381 Kbps
Width : 720 pixels
Height : 304 pixels
Display aspect ratio : 2.35:1
Frame rate : 25.000 fps
Color space : YUV
Chroma subsampling : 4:2:0
Bit depth : 8 bits
Scan type : Progressive
Compression mode : Lossy
Bits/(Pixel*Frame) : 0.435
Stream size : 1.76 GiB (84%)
Writing library : XviD 1.2.1 (UTC 2008-12-04)

Audio
ID : 1
Format : AC-3
Format/Info : Audio Coding 3
Mode extension : CM (complete main)
Format settings, Endianness : Big
Codec ID : 2000
Duration : 1h 45mn
Bit rate mode : Constant
Bit rate : 448 Kbps
Channel(s) : 6 channels
Channel positions : Front: L C R, Side: L R, LFE
Sampling rate : 48.0 KHz
Bit depth : 16 bits
Compression mode : Lossy
Stream size : 338 MiB (16%)



Sample:
Código:

http://uploaded.net/file/eb6lrl6b/G%20I%20Joe%20Retaliation%202013%20DVDRip%20XviD%20AC3%20BHRG%20sample.avi

Download:
Código:

http://uploaded.net/file/cuwzfn26/G%20I%20Joe%20Retaliation%202013%20DVDRip%20XviD%20AC3%20BHRG.avi
or

http://uploaded.net/file/pbe59sb2/G%20I%20Joe%20Retaliation%202013%20DVDRip%20XviD%20AC3%20BHRG.part1.rar

http://uploaded.net/file/dlxmh574/G%20I%20Joe%20Retaliation%202013%20DVDRip%20XviD%20AC3%20BHRG.part2.rar

http://uploaded.net/file/oilltm9c/G%20I%20Joe%20Retaliation%202013%20DVDRip%20XviD%20AC3%20BHRG.part3.rar

Valoración: 0 / 5.00 (0 votos)

Todavía no hay comentarios, se el primero!

Escribir un comentario