G I Joe Retaliation 2013 720p WEB-DL DD5 1 x264-BiTo

escrito por Javi Sanchez el 12 julio 2013

Sin comentarios


G I Joe Retaliation 2013 720p WEB-DL DD5 1 x264-BiTo


Código:

file size…………..: 4.3gb
runtime…………: 1h45m
res……………….: 1280×720
video……………….: 3000
codec……………: mkv
audio………….: AC3 6Ch@ English
subs………..: eng srt not muxed
imdb……………: http://www.imdb.com/title/tt1583421/
Source: Just4 Thx

Video
ID : 1
Format : AVC
Format/Info : Advanced Video Codec
Format profile : High@L3.1
Format settings, CABAC : Yes
Format settings, ReFrames : 4 frames
Codec ID : V_MPEG4/ISO/AVC
Duration : 1h 45mn
Bit rate : 3 000 Kbps
Width : 1 280 pixels
Height : 528 pixels
Display aspect ratio : 2.40:1
Frame rate mode : Constant
Frame rate : 25.000 fps
Color space : YUV
Chroma subsampling : 4:2:0
Bit depth : 8 bits
Scan type : Progressive
Bits/(Pixel*Frame) : 0.178
Stream size : 2.14 GiB (85%)
Writing library : x264 core 125

Audio
ID : 2
Format : AC-3
Format/Info : Audio Coding 3
Mode extension : CM (complete main)
Format settings, Endianness : Big
Codec ID : A_AC3
Duration : 1h 45mn
Bit rate mode : Constant
Bit rate : 448 Kbps
Channel(s) : 6 channels
Channel positions : Front: L C R, Side: L R, LFE
Sampling rate : 48.0 KHz
Bit depth : 16 bits
Compression mode : Lossy
Stream size : 339 MiB (13%)
Language : English
Default : Yes
Forced : No

Código:

http://ul.to/gmy859bq

http://ul.to/0cq4skdl

http://ul.to/3rood7ur

http://rapidgator.net/file/8d1a36c6c2c6099c2a88f038dfe7edfb/gi.part1.rar.html

http://rapidgator.net/file/9bceebc402978c92682d737e8eebcdbd/gi.part2.rar.html

http://rapidgator.net/file/c34bae8267db0f86861b6254d3952e4c/gi.part3.rar.html

Valoración: 0 / 5.00 (0 votos)

Todavía no hay comentarios, se el primero!

Escribir un comentario