G.I. Joe: El Contraataque BDRip 720p Ingles AC3 5.1 Sub Esp [2013][Acción]

escrito por Javi Sanchez el 11 julio 2013

Sin comentarios

G.I. Joe: El Contraataque BDRip 720p Ingles AC3 5.1 Sub Esp [2013][Acción]

Ficha Técnica
G.I. Joe Retaliation
G.I. Joe: El Contraataque
Año: 2013
Duración: 110 min.
País: Estados Unidos
Director: Jon Chu
Guión: Rhett Reese, Paul Wernick
Música: Henry Jackman
Fotografía: Stephen F. Windon
Reparto: Channing Tatum, Ray Park, Lee Byung-hun, Dwayne "The Rock" Johnson, Bruce Willis, Elodie Yung, Adrianne Palicki, Joseph Mazello, D.J. Cotrona, Ray Stevenson, Arnold Vosloo, RZA, Walton Goggins, Jonathan Pryce
Productora: Paramount Pictures / Hasbro / Silver Watch Productions / Skydance Productions
Género: Acción. Ciencia ficción | Secuela. Videojuego
Sinopsis
Los GI Joe no sólo tendrán que vérselas con su enemigo mortal, la organización criminal Cobra, sino que además se verán obligados a lidiar con las amenazas y traiciones dentro de su propio gobierno, que ponen en peligro su existencia.
Datos Técnicos
Código:

General
Format : Matroska
Format version : Version 2
File size : 4.36 GiB
Duration : 2h 3mn
Overall bit rate : 5 079 Kbps
Movie name : CadagotoHD.Com ¡Visítanos!
Encoded date : UTC 2013-07-10 19:49:56
Writing application : mkvmerge v3.4.0 (‘Rapunzel’) built on May 15 2010 09:38:20
Writing library : libebml v0.8.0 + libmatroska v0.9.0

Video
ID : 1
Format : AVC
Format/Info : Advanced Video Codec
Format profile : High@L4.1
Format settings, CABAC : Yes
Format settings, ReFrames : 5 frames
Codec ID : V_MPEG4/ISO/AVC
Duration : 2h 3mn
Bit rate : 4 440 Kbps
Width : 1 280 pixels
Height : 536 pixels
Display aspect ratio : 2.40:1
Frame rate mode : Constant
Frame rate : 23.976 fps
Color space : YUV
Chroma subsampling : 4:2:0
Bit depth : 8 bits
Scan type : Progressive
Bits/(Pixel*Frame) : 0.270
Stream size : 3.73 GiB (85%)
Title : CadagotoHD.Com ¡Visítanos!
Writing library : x264 core 133 r2334 a3ac64b
Encoding settings : cabac=1 / ref=5 / deblock=1:0:0 / analyse=0x3:0x133 / me=umh / subme=7 / psy=1 / psy_rd=1.00:0.00 / mixed_ref=1 / me_range=16 / chroma_me=1 / trellis=1 / 8x8dct=1 / cqm=0 / deadzone=21,11 / fast_pskip=0 / chroma_qp_offset=-2 / threads=6 / lookahead_threads=1 / sliced_threads=0 / nr=0 / decimate=1 / interlaced=0 / bluray_compat=0 / constrained_intra=0 / bframes=3 / b_pyramid=2 / b_adapt=2 / b_bias=0 / direct=3 / weightb=1 / open_gop=0 / weightp=2 / keyint=250 / keyint_min=23 / scenecut=40 / intra_refresh=0 / rc_lookahead=50 / rc=2pass / mbtree=1 / bitrate=4440 / ratetol=1.0 / qcomp=0.60 / qpmin=0 / qpmax=69 / qpstep=4 / cplxblur=20.0 / qblur=0.5 / ip_ratio=1.40 / aq=1:1.00
Language : English
Default : No
Forced : No

Audio
ID : 2
Format : AC-3
Format/Info : Audio Coding 3
Mode extension : CM (complete main)
Format settings, Endianness : Big
Codec ID : A_AC3
Duration : 2h 3mn
Bit rate mode : Constant
Bit rate : 640 Kbps
Channel(s) : 6 channels
Channel positions : Front: L C R, Side: L R, LFE
Sampling rate : 48.0 KHz
Bit depth : 16 bits
Compression mode : Lossy
Stream size : 563 MiB (13%)
Title : CadagotoHD.Com – Audio Ingles AC3 5.1 640Kbps
Language : English
Default : No
Forced : No

Text
ID : 3
Format : UTF-8
Codec ID : S_TEXT/UTF8
Codec ID/Info : UTF-8 Plain Text
Title : CadagotoHD.Com – Subtitulos Español Latino
Language : Spanish
Default : Yes
Forced : Yes

Menu
00:00:00.000 : en:00:00:00.000
00:11:31.858 : en:00:11:31.858
00:18:28.607 : en:00:18:28.607
00:23:49.261 : en:00:23:49.261
00:31:58.125 : en:00:31:58.125
00:37:16.943 : en:00:37:16.943
00:46:13.646 : en:00:46:13.646
00:48:16.727 : en:00:48:16.727
00:54:59.630 : en:00:54:59.630
01:00:31.378 : en:01:00:31.378
01:08:14.924 : en:01:08:14.924
01:14:38.474 : en:01:14:38.474
01:22:21.770 : en:01:22:21.770
01:26:19.424 : en:01:26:19.424
01:32:55.487 : en:01:32:55.487
01:43:06.097 : en:01:43:06.097
01:53:55.579 : en:01:53:55.579







Descargar Enlaces AQUI
http://s2l.biz/42fqqpmna5a
Utiliza los Archivos .REV si tienes problema con 1,2,3 archivos en su descarga , Esté off o corruptos

Si necesitas 2 archivos , Bajas 2 REV y los reconstruirán Cualquiera que fuesen los que te falten !

Valoración: 5.00 / 5.00 (1 votos)

Todavía no hay comentarios, se el primero!

Escribir un comentario