Fast & Furious 6 [2013][TS-Screener HQ][Castellano][Acción][VS]

escrito por Javi Sanchez el 9 julio 2013

Sin comentarios


Título original
Bullet to the Head
Año
2012
Duración
91 min.
País
Estados Unidos
Director
Walter Hill
Guión
Alessandro Camon (Novelas gráficas: Alexis Nolent)
Música
Steve Mazzaro
Fotografía
Lloyd Ahern II
Reparto
Sylvester Stallone, Jason Momoa, Christian Slater, Sarah Shahi, Adewale Akinnuoye-Agbaje, Sung Kang, Marcus Lyle Brown, Jon Seda, Brian Van Holt
Productora
Warner Bros. Pictures / Dark Castle Entertainment / IM Global / After Dark Films
Género
Acción. Thriller | Crimen. Cómic
Web Oficial
http://bullettothehead.warnerbros.com/
Sinopsis
Tras su último trabajo, Jimmy Bobo (Sylvester Stallone), un implacable asesino a sueldo de Nueva Orleáns, sufre un ataque inesperado por parte de Keegan (Jason Momoa), una imparable máquina de matar que ejecuta sin contemplaciones a su compañero (Jon Seda). Dispuesto a vengarse, Jimmy se ve obligado a colaborar con Taylor Kwon (Sung Kan), un detective de la policía poco partidario de los métodos expeditivos. Sin embargo, pronto descubrirá que Jimmy es el arma más eficaz para acabar con una peligrosa organización que ha corrompido a la policía y a las altas esferas de una ciudad devastada por el huracán Katrina. (FILMAFFINITY)


General
Format : AVI
Format/Info : Audio Video Interleave
File size : 1.33 GiB
Duration : 1h 31mn
Overall bit rate : 2 076 Kbps
Writing application : VirtualDubMod 1.5.10.2 (build 2540/release)
Writing library : VirtualDubMod build 2540/release
Video
ID : 0
Format : MPEG-4 Visual
Format profile : Advanced Simple@L5
Format settings, BVOP : 2
Format settings, QPel : No
Format settings, GMC : No warppoints
Format settings, Matrix : Default (MPEG)
Muxing mode : Packed bitstream
Codec ID : XVID
Codec ID/Hint : XviD
Duration : 1h 31mn
Bit rate : 1 941 Kbps
Width : 720 pixels
Height : 384 pixels
Display aspect ratio : 1.85:1
Frame rate : 23.976 fps
Color space : YUV
Chroma subsampling : 4:2:0
Bit depth : 8 bits
Scan type : Progressive
Compression mode : Lossy
Bits/(Pixel*Frame) : 0.293
Stream size : 1.24 GiB (93%)
Writing library : XviD 1.2.1 (UTC 2008-12-04)
Audio
ID : 1
Format : MPEG Audio
Format version : Version 1
Format profile : Layer 3
Mode : Joint stereo
Mode extension : MS Stereo
Codec ID : 55
Codec ID/Hint : MP3
Duration : 1h 30mn
Bit rate mode : Constant
Bit rate : 128 Kbps
Channel(s) : 2 channels
Sampling rate : 48.0 KHz
Compression mode : Lossy
Stream size : 82.5 MiB (6%)
Alignment : Aligned on interleaves
Interleave, duration : 42 ms (1.02 video frame)
Interleave, preload duration : 504 ms



LINKS INTERCAMBIABLES
Código:

http://linksvv.com/lLrTlPUs
Descomprimir con Winrar

Valoración: 0 / 5.00 (0 votos)

Todavía no hay comentarios, se el primero!

Escribir un comentario