Evil Dead (2013) BRRip Audio Latino

escrito por Javi Sanchez el 8 julio 2013

Sin comentarios

SINOPSIS:
Cinco amigos se alojan en una cabaña de Tenessee para así poder ayudar a una de los jóvenes, que se encuentra en rehabilitación por drogas. Estar sin sus drogas convierte a la chica en una persona agresiva, lo que llevará a sus amigos a no darse cuenta de que en realidad esta poseída por demonios que fueron desatados al leer el Necromicon.
Título original: Evil Dead
Año: 2013
Duración: 91 min.
País: Estados Unidos
Director: Fede Álvarez
Guión: Diablo Cody, Sam Raimi, Fede Alvarez, Rodo Sayagues Mendez
Música: Roque Baños
Fotografía: Aaron Morton
Reparto: Jane Levy, Shiloh Fernandez, Lou Taylor Pucci, Elizabeth Blackmore, Jessica Lucas
Productora: FilmDistrict / Ghost House Pictures / Mandate Pictures / Sony Pictures Entertainment (SPE)
Género: Terror.
MEDIA INFO
Spoiler

Video
ID : 0
Format : MPEG-4 Visual
Format profile : Advanced Simple@L5
Format settings, BVOP : 2
Format settings, QPel : No
Format settings, GMC : No warppoints
Format settings, Matrix : Default (H.263)
Codec ID : XVID
Codec ID/Hint : XviD
Duration : 1h 31mn
Bit rate : 939 Kbps
Width : 640 pixels
Height : 272 pixels
Display aspect ratio : 2.35:1
Frame rate : 23.976 fps
Color space : YUV
Chroma subsampling : 4:2:0
Bit depth : 8 bits
Scan type : Progressive
Compression mode : Lossy
Bits/(Pixel*Frame) : 0.225
Stream size : 613 MiB (88%)
Writing library : XviD 1.2.1 (UTC 2008-12-04)
Audio
ID : 1
Format : MPEG Audio
Format version : Version 1
Format profile : Layer 3
Mode : Joint stereo
Codec ID : 55
Codec ID/Hint : MP3
Duration : 1h 31mn
Bit rate mode : Constant
Bit rate : 128 Kbps
Channel(s) : 2 channels
Sampling rate : 48.0 KHz
Compression mode : Lossy
Stream size : 83.6 MiB (12%)
Alignment : Aligned on interleaves
Interleave, duration : 167 ms (4.00 video frames)
Interleave, preload duration : 216 ms
Title : Evil.Dead.2013.BD.LATiNO 128Kbps www.intercambiosvirtuales.org
Writing library : LAME3.99r
Encoding settings : -m j -V 4 -q 2 -lowpass 17 -b 128
null

CAPTURAS PROPIAS:




LOS LINKS SON INTERCAMBIABLES!
LINKS DE DESCARGAR RAPIGATOR
Código:

http://rapidgator.net/file/b5283ad072aaa9c301fdebf2d784942a/ED2013.part1.rar.html
http://rapidgator.net/file/bc50b583708b7ceca83eb1109d0516a6/ED2013.part2.rar.html

LINKS DE DESCARGA BITSHARE
Código:

http://bitshare.com/files/yl7p42yz/ED2013.part1.rar.html
http://bitshare.com/files/fftcka91/ED2013.part2.rar.html

Valoración: 0 / 5.00 (0 votos)

Todavía no hay comentarios, se el primero!

Escribir un comentario