En Trance BDRip 720p Español LATiNO 5.1/Ingles DTS Sub Esp [2013][Robos & Atracos]

escrito por Javi Sanchez el 9 julio 2013

Sin comentarios

En Trance BDRip 720p Español LATiNO 5.1/Ingles DTS Sub Esp [2013][Robos & Atracos]

Ficha Técnica
Trance
En Trance
Año: 2013
Duración: 101 min.
País: Reino Unido
Director: Danny Boyle
Guión: Joe Ahearne, John Hodge
Música: Rick Smith
Fotografía: Anthony Dod Mantle
Reparto: James McAvoy, Vincent Cassel, Rosario Dawson, Tuppence Middleton, Danny Sapani, Wahab Sheikh, Lee Nicholas Harris, Ben Cura, Gioacchino Jim Cuffaro, Hamza Jeetooa
Productora: Cloud Eight Films / Film4
Género: Thriller | Robos & Atracos
Sinopsis
Simon (James McAvoy), un empleado de una casa de subastas, se asocia con una banda criminal para robar una valiosa obra de arte. Pero, tras recibir un golpe en la cabeza durante el atraco, descubre, al despertarse, que no recuerda dónde ha escondido el cuadro. Cuando ni las amenazas ni la tortura física logran arrancarle ninguna respuesta, el jefe de la banda (Vincent Cassel) contrata a una hipnoterapeuta (Rosario Dawson) para que le ayude a recordar.
Datos Técnicos
Código:

General
Format : Matroska
Format version : Version 2
File size : 5.14 GiB
Duration : 1h 41mn
Overall bit rate : 7 264 Kbps
Movie name : CadagotoHD.Com ¡Visítanos!
Encoded date : UTC 2013-07-09 03:09:36
Writing application : mkvmerge v3.4.0 (‘Rapunzel’) built on May 15 2010 09:38:20
Writing library : libebml v0.8.0 + libmatroska v0.9.0

Video
ID : 1
Format : AVC
Format/Info : Advanced Video Codec
Format profile : High@L4.1
Format settings, CABAC : Yes
Format settings, ReFrames : 5 frames
Codec ID : V_MPEG4/ISO/AVC
Duration : 1h 41mn
Bit rate : 4 665 Kbps
Width : 1 280 pixels
Height : 536 pixels
Display aspect ratio : 2.40:1
Frame rate mode : Constant
Frame rate : 23.976 fps
Color space : YUV
Chroma subsampling : 4:2:0
Bit depth : 8 bits
Scan type : Progressive
Bits/(Pixel*Frame) : 0.284
Stream size : 3.20 GiB (62%)
Title : CadagotoHD.Com ¡Visítanos!
Writing library : x264 core 133 r2334 a3ac64b
Encoding settings : cabac=1 / ref=5 / deblock=1:-3:-3 / analyse=0x3:0x113 / me=umh / subme=8 / psy=1 / psy_rd=1.00:0.00 / mixed_ref=1 / me_range=16 / chroma_me=1 / trellis=1 / 8x8dct=1 / cqm=0 / deadzone=21,11 / fast_pskip=1 / chroma_qp_offset=-2 / threads=18 / lookahead_threads=3 / sliced_threads=0 / nr=0 / decimate=1 / interlaced=0 / bluray_compat=0 / constrained_intra=0 / bframes=3 / b_pyramid=2 / b_adapt=2 / b_bias=0 / direct=3 / weightb=1 / open_gop=0 / weightp=2 / keyint=240 / keyint_min=24 / scenecut=40 / intra_refresh=0 / rc_lookahead=50 / rc=2pass / mbtree=1 / bitrate=4665 / ratetol=1.0 / qcomp=0.60 / qpmin=0 / qpmax=69 / qpstep=4 / cplxblur=20.0 / qblur=0.5 / ip_ratio=1.40 / aq=1:1.00
Language : English
Default : No
Forced : No

Audio #1
ID : 2
Format : AC-3
Format/Info : Audio Coding 3
Mode extension : CM (complete main)
Format settings, Endianness : Big
Codec ID : A_AC3
Duration : 1h 41mn
Bit rate mode : Constant
Bit rate : 448 Kbps
Channel(s) : 6 channels
Channel positions : Front: L C R, Side: L R, LFE
Sampling rate : 48.0 KHz
Bit depth : 16 bits
Compression mode : Lossy
Stream size : 325 MiB (6%)
Title : CadagotoHD.Com – Audio Español Latino AC3 5.1 4480Kbps
Language : Spanish
Default : Yes
Forced : Yes

Audio #2
ID : 3
Format : AC-3
Format/Info : Audio Coding 3
Mode extension : CM (complete main)
Format settings, Endianness : Big
Codec ID : A_AC3
Duration : 1h 41mn
Bit rate mode : Constant
Bit rate : 640 Kbps
Channel(s) : 6 channels
Channel positions : Front: L C R, Side: L R, LFE
Sampling rate : 48.0 KHz
Bit depth : 16 bits
Compression mode : Lossy
Stream size : 464 MiB (9%)
Title : CadagotoHD.Com – Audio Ingles AC3 5.1 640Kbps
Language : English
Default : No
Forced : No

Audio #3
ID : 4
Format : DTS
Format/Info : Digital Theater Systems
Format profile : ES
Mode : 16
Format settings, Endianness : Big
Codec ID : A_DTS
Duration : 1h 41mn
Bit rate mode : Constant
Bit rate : 1 509 Kbps
Channel(s) : 6 channels
Channel positions : Front: L C R, Side: L R, LFE
Sampling rate : 48.0 KHz
Bit depth : 24 bits
Compression mode : Lossy
Delay relative to video : 11ms
Stream size : 1.07 GiB (21%)
Title : CadagotoHD.Com – Audio Ingles DTS 1509Kbps
Language : English
Default : No
Forced : No

Text #1
ID : 5
Format : UTF-8
Codec ID : S_TEXT/UTF8
Codec ID/Info : UTF-8 Plain Text
Language : Spanish
Default : Yes
Forced : Yes

Text #2
ID : 6
Format : UTF-8
Codec ID : S_TEXT/UTF8
Codec ID/Info : UTF-8 Plain Text
Title : CadagotoHD.Com – Subtitulos Español Latino
Language : Spanish
Default : No
Forced : No

Menu
00:00:00.000 : en:00:00:00.000
00:04:05.871 : en:00:04:05.871
00:08:18.832 : en:00:08:18.832
00:10:09.859 : en:00:10:09.859
00:13:06.786 : en:00:13:06.786
00:15:42.650 : en:00:15:42.650
00:17:33.678 : en:00:17:33.678
00:21:57.274 : en:00:21:57.274
00:23:46.634 : en:00:23:46.634
00:25:54.720 : en:00:25:54.720
00:28:11.398 : en:00:28:11.398
00:31:08.533 : en:00:31:08.533
00:33:40.644 : en:00:33:40.644
00:36:31.272 : en:00:36:31.272
00:39:10.723 : en:00:39:10.723
00:41:49.340 : en:00:41:49.340
00:45:58.881 : en:00:45:58.881
00:51:51.483 : en:00:51:51.483
00:59:00.287 : en:00:59:00.287
01:02:10.894 : en:01:02:10.894
01:08:08.584 : en:01:08:08.584
01:12:06.822 : en:01:12:06.822
01:14:36.138 : en:01:14:36.138
01:16:13.152 : en:01:16:13.152
01:25:36.548 : en:01:25:36.548
01:28:16.291 : en:01:28:16.291
01:31:34.781 : en:01:31:34.781
01:35:32.769 : en:01:35:32.769






Descargar Enlaces AQUI
http://s2l.biz/85eknpmucqwdw
Utiliza los Archivos .REV si tienes problema con 1,2,3 archivos en su descarga , Esté off o corruptos

Si necesitas 2 archivos , Bajas 2 REV y los reconstruirán Cualquiera que fuesen los que te falten !

Valoración: 5.00 / 5.00 (1 votos)

Todavía no hay comentarios, se el primero!

Escribir un comentario