En la niebla (2012) [DVDRip Castellano][Drama][VS]

escrito por Javi Sanchez el 5 julio 2013

Sin comentarios



Cita:

Título original
V tumane (Im Nebel) (Dans La Brume)
Año
2012
Duración
127 min.
País
Bielorusia
Director
Sergei Loznitsa
Guión
Sergei Loznitsa (Novela: Vasiliy Vladimirovich Bykov)
Fotografía
Oleg Mutu
Reparto
Vladimir Svirski, Vlad Abashin, Sergeï Kolesov, Vlad Ivanov, Julia Peresild, Nikita Peretomovs, Nadezhda Markina
Productora
Coproducción Bielorrusia-Alemania-Rusia-Holanda-Letonia
Género
Drama | II Guerra Mundial
Web Oficial
http://www.inthefog-movie.com
Sinopsis
Segunda Guerra Mundial, año 1942. En la frontera rusa, los partisanos de la resistencia bielorrusa luchan encarnizadamente contra la ocupación nazi. A través de la historia de dos partisanos cuyos caminos confluyen, el relato denuncia la irracionalidad y la crueldad de la guerra. Adaptación de la novela homónima del prolífico escritor bielorruso Vasiliy Vladimirovich Bykov. (FILMAFFINITY)



Spoiler

General
Format : AVI
Format/Info : Audio Video Interleave
File size : 1.45 GiB
Duration : 2h 2mn
Overall bit rate : 1 693 Kbps
Writing application : VirtualDubMod 1.5.10.2 (build 2540/release)
Writing library : VirtualDubMod build 2540/release
Video
ID : 0
Format : MPEG-4 Visual
Format profile : Simple@L3
Format settings, BVOP : No
Format settings, QPel : No
Format settings, GMC : No warppoints
Format settings, Matrix : Default (H.263)
Codec ID : XVID
Codec ID/Hint : XviD
Duration : 2h 2mn
Bit rate : 1 491 Kbps
Width : 720 pixels
Height : 304 pixels
Display aspect ratio : 2.35:1
Frame rate : 25.000 fps
Color space : YUV
Chroma subsampling : 4:2:0
Bit depth : 8 bits
Scan type : Progressive
Compression mode : Lossy
Bits/(Pixel*Frame) : 0.273
Stream size : 1.28 GiB (88%)
Writing library : XviD 1.2.1 (UTC 2008-12-04)
Audio
ID : 1
Format : AC-3
Format/Info : Audio Coding 3
Mode extension : CM (complete main)
Format settings, Endianness : Big
Codec ID : 2000
Duration : 2h 2mn
Bit rate mode : Constant
Bit rate : 192 Kbps
Channel(s) : 2 channels
Channel positions : Front: L R
Sampling rate : 48.0 KHz
Bit depth : 16 bits
Compression mode : Lossy
Stream size : 169 MiB (11%)
Alignment : Split accross interleaves
Interleave, duration : 40 ms (1.00 video frame)
Interleave, preload duration : 500 ms



LINKS INTERCAMBIABLES

*NO CAPTCHAS – Excelente Velocidad*
Código:

http://akafile.com/s8je03ixjtjz
http://akafile.com/g7ixeczvmqei

*DESCARGAS SIN CAPTCHAS*
No disponible por el momento

Código:

http://ul.to/m270j8fo
http://ul.to/ntzmvbnf
*1 LINK*
Código:

http://ul.to/etnpbzt5

Descomprimir con Winrar

Valoración: 0 / 5.00 (0 votos)

Todavía no hay comentarios, se el primero!

Escribir un comentario