El Hombre de Acero (2013) [HDTV-LINE (R6)][Cast LINE][C.Ficcion][VS]

escrito por Javi Sanchez el 5 julio 2013

Sin comentarios



Cita:

Título original
Man of Steel (Superman)
Año
2013
Duración
143 min.
País
Estados Unidos
Director
Zack Snyder
Guión
David S. Goyer (Historia: David S. Goyer, Christopher Nolan)
Música
Hans Zimmer, Junkie XL
Fotografía
Amir Mokri
Reparto
Henry Cavill, Amy Adams, Russell Crowe, Michael Shannon, Kevin Costner, Laurence Fishburne, Diane Lane, Ayelet Zurer, Christopher Meloni, Antje Traue, Jadin Gould, Tahmoh Penikett, Michael Kelly, Dylan Sprayberry, Harry Lennix
Productora
Coproducción USA-Canadá-Reino Unido; Warner Bros. Pictures / Legendary Pictures / Atlas Entertainment
Género
Fantástico. Ciencia ficción. Acción. Drama | Superhéroes. Cómic. DC Comics. 3-D
Web Oficial
http://wwws.warnerbros.es/manofsteel/index.html
Sinopsis
Clark Kent (Henry Cavill) es un joven que posee poderes sobrehumanos. Cuando era un bebé, fue enviado a la Tierra desde Krypton, un lejano planeta muy avanzado tecnológicamente. Educado en los valores de sus padres adoptivos, Martha (Diane Lane) y Jonathan Kent (Kevin Costner), llega a la conclusión de que esos poderes le exigen grandes responsabilidades, y no duda entonces en transformarse en Superman, para proteger no sólo a los que quiere, sino también para representar una esperanza para el mundo. (FILMAFFINITY)

LINKS: Pagina Oficial | Trailer



Spoiler

General
Format : AVI
Format/Info : Audio Video Interleave
Format profile : OpenDML
File size : 2.00 GiB
Duration : 2h 22mn
Overall bit rate : 2 006 Kbps
Writing application : VirtualDubMod 1.5.10.2 (build 2542/release)
Writing library : VirtualDubMod build 2542/release
Video
ID : 0
Format : MPEG-4 Visual
Format profile : Advanced Simple@L5
Format settings, BVOP : 2
Format settings, QPel : No
Format settings, GMC : No warppoints
Format settings, Matrix : Default (H.263)
Codec ID : XVID
Codec ID/Hint : XviD
Duration : 2h 22mn
Bit rate : 1 799 Kbps
Width : 720 pixels
Height : 320 pixels
Display aspect ratio : 2.25:1
Frame rate : 29.970 fps
Color space : YUV
Chroma subsampling : 4:2:0
Bit depth : 8 bits
Scan type : Progressive
Compression mode : Lossy
Bits/(Pixel*Frame) : 0.261
Stream size : 1.79 GiB (90%)
Writing library : XviD 1.2.1 (UTC 2008-12-04)
Audio
ID : 1
Format : MPEG Audio
Format version : Version 1
Format profile : Layer 3
Mode : Joint stereo
Codec ID : 55
Codec ID/Hint : MP3
Duration : 2h 22mn
Bit rate mode : Constant
Bit rate : 192 Kbps
Channel(s) : 2 channels
Sampling rate : 48.0 KHz
Compression mode : Lossy
Stream size : 196 MiB (10%)
Alignment : Aligned on interleaves
Interleave, duration : 33 ms (1.00 video frame)
Interleave, preload duration : 504 ms
Writing library : LAME3.97



LINKS INTERCAMBIABLES
Código:

http://linksvv.com/WylBF7hZ

Descomprimir con Winrar

Valoración: 0 / 5.00 (0 votos)

Todavía no hay comentarios, se el primero!

Escribir un comentario