El gran golpe (The Thieves) (2012) [HDRip Castellano][Accion][VS]

escrito por Javi Sanchez el 5 julio 2013

Sin comentarios



Cita:

Título original
Dodookdeul (The Thieves)
Año
2012
Duración
135 min.
País
Corea del Sur
Director
Choi Dong-hun (AKA Choi Dong-hoon)
Guión
Choi Dong-hun (AKA Choi Dong-hoon), Lee Gi-cheol
Música
Jang Young-gyu, Dalpalan
Fotografía
Choi Young-hwan
Reparto
Kim Yun-Seok, Kim Hye-Soo, Lee Jung-Jae, Jun Ji-hyun (AKA Gianna Jun), Kim Hae-Suk, Kim Soo-Hyun, Simon Yam, Oh Dal-Su, Angelica Lee, Kwok Cheung Tsang, Shin Ha-Kyun, Joo Jin-Mo, Ki Guk-Seo, Choi Deok-Mun, Chae Gook-Hee, Ye Soo-Jung
Productora
Coproducción Corea del sur-China; Showbox/Mediaplex
Género
Thriller. Acción | Robos & Atracos
Sinopsis
Taquillera cinta de acción sobre un sofisticado y espectacular robo de un grupo de ladrones. Cuando Popie y sus compinches viajan a Macao para hacer un trabajo, descubren que detrás del golpe está un antiguo socio de Popie. El plan es robar un diamante, la "lágrima del Sol", que vale una fortuna. Lo malo es que ninguno sabe que cada uno tiene su propio plan. (FILMAFFINITY)



Spoiler

General
Format : AVI
Format/Info : Audio Video Interleave
Format profile : OpenDML
File size : 2.42 GiB
Duration : 2h 15mn
Overall bit rate : 2 554 Kbps
Writing application : VirtualDubMod 1.5.10.2 (build 2540/release)
Writing library : VirtualDubMod build 2540/release
Video
ID : 0
Format : MPEG-4 Visual
Format profile : Advanced Simple@L5
Format settings, BVOP : 2
Format settings, QPel : No
Format settings, GMC : No warppoints
Format settings, Matrix : Default (MPEG)
Codec ID : XVID
Codec ID/Hint : XviD
Duration : 2h 15mn
Bit rate : 2 095 Kbps
Width : 720 pixels
Height : 304 pixels
Display aspect ratio : 2.35:1
Frame rate : 24.000 fps
Color space : YUV
Chroma subsampling : 4:2:0
Bit depth : 8 bits
Scan type : Progressive
Compression mode : Lossy
Bits/(Pixel*Frame) : 0.399
Stream size : 1.99 GiB (82%)
Writing library : XviD 1.2.1 (UTC 2008-12-04)
Audio
ID : 1
Format : AC-3
Format/Info : Audio Coding 3
Mode extension : CM (complete main)
Format settings, Endianness : Big
Codec ID : 2000
Duration : 2h 15mn
Bit rate mode : Constant
Bit rate : 448 Kbps
Channel(s) : 6 channels
Channel positions : Front: L C R, Side: L R, LFE
Sampling rate : 48.0 KHz
Bit depth : 16 bits
Compression mode : Lossy
Stream size : 435 MiB (18%)
Alignment : Split accross interleaves
Interleave, duration : 42 ms (1.00 video frame)
Interleave, preload duration : 500 ms



LINKS INTERCAMBIABLES

*NO CAPTCHAS – Excelente Velocidad*
Código:

http://akafile.com/mrtnt43jxvuf

http://akafile.com/4o14drjt4jnw

http://akafile.com/113pmkzxcpy9

http://akafile.com/g52xqo6x57lo

*DESCARGAS SIN CAPTCHAS*
No disponible por el momento

Código:

http://ul.to/3knchfwu

http://ul.to/jdjs4byu

http://ul.to/eie0ab6w

http://ul.to/yik11nw2
*1 LINK*
Código:

http://ul.to/vvoedvzu

Descomprimir con Winrar

Valoración: 0 / 5.00 (0 votos)

Todavía no hay comentarios, se el primero!

Escribir un comentario