El 7º Vicio – El otro Fútbol [MP4][Latino][1080p][2012]

escrito por Javi Sanchez el 12 abril 2013

Sin comentarios



Un minuto de silencio por los grandes jugadores de fútbol que no fuímos.

El fútbol tiene la magia de entregarnos miles de historias. Muchas son anónimas y son grandes fuentes de inspiración. El documental “El Otro Fútbol” es una de las miradas más humanas hechas a las canchas de tierra en las cuales crecimos. Y si no es el documental latinoamericano más esperado, pega en el palo.
Hablamos con su director, Federico Peretti.

Descargar 1 link desde: MediafirePutlockerRapidshareHostgator


Format : MPEG-4
Format profile : Base Media / Version 2
Codec ID : mp42
File size : 626 MiB
Duration : 27mn 9s
Overall bit rate mode : Variable
Overall bit rate : 3 223 Kbps
Encoded date : UTC 2012-10-18 20:14:26
Tagged date : UTC 2012-10-18 20:14:26
Video
ID : 1
Format : AVC
Format/Info : Advanced Video Codec
Format profile : High@L4.0
Format settings, CABAC : Yes
Format settings, ReFrames : 1 frame
Codec ID : avc1
Codec ID/Info : Advanced Video Coding
Duration : 27mn 9s
Bit rate : 4 729 Kbps
Maximum bit rate : 13.3 Mbps
Width : 1 920 pixels
Height : 1 080 pixels
Display aspect ratio : 16:9
Frame rate mode : Constant
Frame rate : 29.970 fps
Color space : YUV
Chroma subsampling : 4:2:0
Bit depth : 8 bits
Scan type : Progressive
Bits/(Pixel*Frame) : 0.076
Stream size : 919 MiB
Tagged date : UTC 2012-10-18 20:15:08
Audio
ID : 2
Format : AAC
Format/Info : Advanced Audio Codec
Format profile : LC
Codec ID : 40
Duration : 27mn 9s
Bit rate mode : Variable
Bit rate : 192 Kbps
Maximum bit rate : 201 Kbps
Channel(s) : 2 channels
Channel positions : Front: L R
Sampling rate : 44.1 KHz
Compression mode : Lossy
Stream size : 37.3 MiB (6%)
Title : IsoMedia File Produced by Google, 5-11-2011
Encoded date : UTC 2012-10-18 20:14:43
Tagged date : UTC 2012-10-18 20:15:08



EN ESPAÑOL | LATINO


LO SIENTO PERO NO HE PODIDO HACER LAS CAPTURAS EN ESTE DOCUMENTAL




EL 7º VICIO || EL OTRO FUTBOL

Código:

http://ul.to/ce4vgqjx

http://ul.to/l72f8mrg

http://ul.to/0zrvmjed

‘’Yo soy de la época en la que un disco pirata era un disco no oficial de Led Zepelin, o de los Rolling Stones, eran estos vinilos blancos, con una fotocopia…
Para mi el disco pirata fue siempre algo difícil de conseguir, un articulo de colección, una especie de joya única’’ -Andrés Calamaro.

Todavía no hay comentarios, se el primero!

Escribir un comentario